Правила форума

  • В этом разделе создание новых тем Запрещено.
  • Для создания новых тем пользуйтесь Корневым разделом DVD и HD фильмы.
Начать новую темуОтветить на тему  [ 1 сообщение ] 
Торрент файл
Размер: 4.37 GB • Зарегистрирован: 4 года 2 месяца • Статус: Проверено
Скачан: 118 раз • Желающих скачать: 0 • Поблагодарили: 24 раза
 Раздают: 0  |  0 KB/s  ]   Качают: 0  |  0 KB/s  ] 
 Полного источника не было 2 года 10 месяцев 
Сообщения
 Добавлено: 2012-09-10 07:56
DVD Release Group
Аватара пользователя
Стаж: 7 лет 1 месяц
Сообщений: 3552
Спасибок: 247194
Лайков: 1018
Джунгли зовут! В поисках Марсупилами

Sur la piste du Marsupilami


Изображение


Год выпуска: 2012
Страна: Франция, Бельгия
Жанр: Комедия, приключения, семейный
Продолжительность: 01:39:17
Перевод: Профессиональный (полное дублирование)
Cубтитры: Нет
Режиссер: Ален Шаба
В ролях: Жамель Деббуз, Ален Шаба, Фред Тесто, Ламбер Вильсон, Жеральдин Накаш, Лия Кебеде, Патрик Тимсит, Жак Вебер, Айсса Майга, Далип Синх
Описание: Cпасти карьеру некогда знаменитого телеведущего Дэна Джеральдо может лишь одно — сенсация. В поисках жареных фактов журналист отправляется в таинственную страну Паломбию. С помощью неутомимого местного авантюриста Паблито он выходит на след самого загадочного существа на Земле — рыжего и пушистого, сумчатого и хвостатого зверя Марсупилами. Обаятельнейшее животное каким-то непостижимым образом связано с тайной вечной молодости, и на него объявлена настоящая охота. Путешественникам придется спасти Марсупилами от безумных ученых, грозных военных, алчных браконьеров и прочих напастей, которые таят джунгли.
Кинопоиск: 6.4 (969)
IMDb: 5.8 (724)
Дополнительно:
Исходник: DVD9 (6.12 GB) [лицензия, PAL 16:9].
Убрано: Реклама, заставки и предупреждение, звук переделан из DTS.
Сжатие фильма 23.7% сжатия (без учета ручного перераспределения битрейта, за счет большего сжатия конечных титров).
Работоспособность проверена на софтовом плеере Windows Media и бытовом LG.
Качество: DVD5 (сжатый)
Формат: DVD Video
Видео кодек: MPEG2
Аудио кодек: AC3
Видео: 720х576 25fps 6013Kbps
Аудио: 48kHz 6ch 448Kbps
"MediaInfo"
Формат : MPEG-PS
Размер файла : 1024 Мбайт
Продолжительность : 21 м.
Режим общего битрейта : Переменный
Общий поток : 6592 Кбит/сек

Видео
Идентификатор : 224 (0xE0)
Формат : MPEG Video
Версия формата : Version 2
Профиль формата : Main@Main
Параметр BVOP формата : Да
Параметр матрицы формата : Выборочная
Продолжительность : 21 м.
Вид битрейта : Переменный
Битрейт : 6013 Кбит/сек
Максимальный битрейт : 9000 Кбит/сек
Ширина : 720 пикселей
Высота : 576 пикселей
Соотношение сторон : 16:9
Частота кадров : 25,000 кадров/сек
Стандарт вещания : PAL
Цветовое пространство : YUV
Субдискретизация насыщенности : 4:2:0
Битовая глубина : 8 бит
Тип развёртки : Чересстрочная
Порядок развёртки : Верхнее поле первое
Метод сжатия : С потерями
Бит/(Пиксели*Кадры) : 0.580
Размер потока : 934 Мбайт (91%)

Аудио
Идентификатор : 189 (0xBD)-128 (0x80)
Формат : AC-3
Формат/Информация : Audio Coding 3
Расширение режима : CM (complete main)
Режим смешивания : DVD-Video
Продолжительность : 21 м.
Вид битрейта : Постоянный
Битрейт : 448 Кбит/сек
Каналы : 6 каналов
Расположение каналов : Front: L C R, Side: L R, LFE
Частота : 48,0 КГц
Битовая глубина : 16 бит
Метод сжатия : С потерями
Размер потока : 69,6 Мбайт (7%)

Меню
Свернуть

"Скриншоты"
Изображение
Изображение
Изображение
Изображение
Изображение
Свернуть

Раздача группы:
Изображение
В сети
Профиль  
Начать новую темуОтветить на тему  [ 1 сообщение ] 
Вы не можете начинать темы
Вы не можете отвечать на сообщения
Вы не можете редактировать свои сообщения
Вы не можете удалять свои сообщения