Правила форума

  • В этом разделе создание новых тем Запрещено.
  • Для создания новых тем пользуйтесь Корневым разделом DVD и HD фильмы.
Начать новую темуОтветить на тему  [ Сообщений: 4 ] 
Торрент файл
Размер: 3.85 GB • Зарегистрирован: 2 года 10 месяцев • Статус: Проверено
Скачан: 25 раз • Желающих скачать: 0 • Поблагодарили: 7 раз
 Раздают: 0  |  0 KB/s  ]   Качают: 0  |  0 KB/s  ] 
 Полного источника не было 1 год 10 месяцев 
Сообщения
 Добавлено: 2014-01-23 11:51
Аватара пользователя
Стаж: 4 года 1 месяц
Сообщений: 12
Спасибок: 268
Лайков: 2
Дневники мертвецов / Diary of the Dead

Изображение


Год выпуска: 2007
Страна: США (Artfire Films)
Слоган: «Последний фильм на Земле»
Жанр: Ужасы, фантастика
Продолжительность: 01:35:12
Версия фильма: Unrated / Полная версия
Перевод: Профессиональный (Полное дублирование)
Субтитры: Нет

Режиссёр: Джордж А. Ромеро
Сценарист: Джордж А. Ромеро
Продюсер: Сэм Энглебардт, Питер Грюнвольд, Ара Кац
Оператор: Адам Свика
Композитор: Норман Оренштейн
В ролях: Джошуа Клоуз, Скотт Вентуорф, Мишель Морган, Джо Диникол, Шоун Робертс, Эми Чупак Лалонд, Филип Риччио, Меган Парк, Крис Вайолетт, Татьяна Маслани
Описание: Во время съемок фильма ужасов Джейсон Крид и его друзья, студенты колледжа, узнают невероятную новость: вымысел превратился в реальность, мертвецы восстали из мертвых! Испуганные и растерянные, ребята в страхе бегут домой, надеясь найти укрытие в родных стенах, но вскоре понимают, что возвращаться им больше некуда.

Все, что было дорого Джейсону и его друзьям, все их надежды и мечты были растерзаны молчаливой толпой живых мертвецов. У них осталась только одна причина жить: фильм, который станет последней кинохроникой умирающей цивилизации. Ради возможности добавить еще одну печальную запись в «Дневники мертвецов», Джейсон не остановит съемку, даже когда зомби начнут разрывать на части его друзей.
Рейтинг MPAA: Рейтинг R (Подростки до 17 лет допускаются на фильм только в сопровождении одного из родителей)
Мировая премьера: 8 сентября 2007
Премьера в России: 3 апреля 2008
Бюджет: $2 000 000
Кассовые сборы: $5 188 775
Изображение 5.895 (5287)
Изображение 5.80 (35 345)

Качество: DVD5
Формат: MPEG Video
Видео кодек: XviD
Аудио кодек: AC3 (Dolby Digital)
Видео: 720х576, 5589 Кбит/сек, 25,000 кадров/сек, 0.539 bit/pixel
Аудио #1: AC-3, 6 каналов, 448 Кбит/сек [Профессиональный (Полное дублирование)]
Субтитры: Нет
Скриншоты
Изображение
Изображение
Изображение
Свернуть

MediaInfo
Общее
Формат : MPEG-PS
Размер файла : 1024 Мбайт
Продолжительность : 01:35:12
Режим общего битрейта : Переменный
Общий поток : 6115 Кбит/сек

Видео
Идентификатор : 224 (0xE0)
Формат : MPEG Video
Версия формата : Version 2
Профиль формата : Main@Main
Параметр BVOP формата : Да
Параметр матрицы формата : Выборочная
Параметр GOP формата : M=3, N=15
Продолжительность : 23 м.
Вид битрейта : Переменный
Битрейт : 5546 Кбит/сек
Максимальный битрейт : 8000 Кбит/сек
Ширина : 720 пикселей
Высота : 576 пикселей
Соотношение сторон : 16:9
Частота кадров : 25,000 кадров/сек
Стандарт вещания : PAL
Цветовое пространство : YUV
Субдискретизация насыщенности : 4:2:0
Битовая глубина : 8 бит
Тип развёртки : Чересстрочная
Порядок развёртки : Верхнее поле первое
Метод сжатия : С потерями
Бит/(Пиксели*Кадры) : 0.535
Временной код первого кадра : 01:00:00:00
Оригинал временного кода : Group of pictures header
Размер потока : 929 Мбайт (91%)

Аудио
Идентификатор : 189 (0xBD)-128 (0x80)
Формат : AC-3
Формат/Информация : Audio Coding 3
Расширение режима : CM (complete main)
Параметр Endianness формата : Big
Режим смешивания : DVD-Video
Продолжительность : 23 м.
Вид битрейта : Постоянный
Битрейт : 448 Кбит/сек
Каналы : 6 каналов
Расположение каналов : Front: L C R, Side: L R, LFE
Частота : 48,0 КГц
Битовая глубина : 16 бит
Метод сжатия : С потерями
Задержка видео : -80 мс.
Размер потока : 75,0 Мбайт (7%)
Свернуть

Изображение
_________________
Изображение
Не в сети
Профиль  
 Добавлено: 2014-01-23 13:03 (спустя 1 час 11 минут)
Модератор
Аватара пользователя
Стаж: 7 лет 9 месяцев
Сообщений: 4521
Спасибок: 112855
Лайков: 583
xPEPSIx
почему не на раздаче??
Не в сети
Профиль  
 Добавлено: 2014-01-26 15:53 (спустя 3 дня)
Аватара пользователя
Стаж: 5 лет 9 месяцев
Сообщений: 8
Версия фильма: Unrated / Полная версия
И в чем она полная?
Не в сети
Профиль  
 Добавлено: 2014-03-22 20:25 (спустя 1 месяц 27 дней)
DVD Release Group
Аватара пользователя
Стаж: 7 лет 9 месяцев
Сообщений: 364
Спасибок: 3086
Лайков: 10
А мне другое интересно, почему в технических данных бред написан и интересно почему всем на это пофиг. :ps_ih:
В действительности это не XviD - ни каким боком:

Качество: DVD 5
Формат: DVD Video
Видео кодек: MPEG2
Аудио кодек: AC3 (Dolby Digital)
Видео: PAL 16:9 (720x576) VBR, Auto Letterboxed, Bitrate: 5. 546 Mbps, 25,000 кадр/сек
Аудио 1: Russian, AC3, 3/2 (L,C,R,SL,SR)+LFE ch, 448 kbps - Профессиональный (дубляж)

Это больше похоже на правду. :a_g_a:
Не в сети
Профиль  
Начать новую темуОтветить на тему  [ Сообщений: 4 ] 
Вы не можете начинать темы
Вы не можете отвечать на сообщения
Вы не можете редактировать свои сообщения
Вы не можете удалять свои сообщения