Правила форума

  • В этом разделе создание новых тем Запрещено.
  • Для создания новых тем пользуйтесь Корневым разделом DVD и HD фильмы.
Начать новую темуОтветить на тему  [ Сообщений: 2 ] 
Торрент файл
Размер: 4.37 GB • Зарегистрирован: 5 лет • Статус: Проверено
Скачан: 174 раза • Желающих скачать: 0 • Поблагодарили: 33 раза
 Раздают: 0  |  0 KB/s  ]   Качают: 0  |  0 KB/s  ] 
 Полного источника не было 3 года 
Сообщения
 Добавлено: 2011-11-17 09:04
Руководитель релиз-группы
Аватара пользователя
Стаж: 7 лет 4 месяца
Возраст: 31
Сообщений: 3407
Спасибок: 46728
Лайков: 5
Изображение

Древо жизни
The Tree of Life


Год выпуска: 2011
Страна: США
Слоган: «Our picture is a cosmic epic, a hymn to life»
Жанр: драма
Продолжительность: 02:12:48
Перевод: Профессиональный (полное дублирование)
Режиссер: Терренс Малик
Сценарий: Терренс Малик
Продюсер: Уильям Полад, Деде Гарднер, Сара Грин
Оператор: Эммануэль Любецки
Композитор: Александр Деспла
В ролях: Брэд Питт, Шон Пенн, Джессика Честейн, Хантер МакКракен, Ларами Эпплер, Тай Шеридан, Фиона Шоу, Джессика Фусельер, Николас Гонда, Уилл Уоллес
Бюджет: $32 000 000
Сборы в мире: $54 303 319
Описание: Мы наблюдаем за развитием 11-летнего Джека, одного из трех братьев. Поначалу ребенку все кажется чудесным. Глазами своей души он наблюдает за поступками мамы. Она представляет собой любовь и милосердие, в то время как отец пытается научить сына, что в реальном мире на первое место необходимо всегда ставить себя. Каждый родитель старается переманить Джека на свою сторону, и он должен примириться с их притязаниями. Действительность становится мрачнее, когда главному герою в первый раз приходится столкнуться с болью, страданиями и смертью. Некогда абсолютно ясный мир превращается в лабиринт.
Изображение
MPAA: Изображение
Релиз: Изображение Раздача группы: Изображение
Качество: DVD5 (сжатый)
Формат: DVD Video
Видео: MPEG2; PAL 16:9 (720x576)
Аудио #1: Dolby AC3, 6 ch, 384 Kbps Russian
Аудио #2: Dolby AC3, 6 ch, 384 Kbps English
Субтитры: русские, украинские
Дополнительная информация :
Исходник : DVD9 (7.75 Гб) [лицензия, PAL 16:9]
Убрано : допы, реклама, заставки, предупреждения, Russian (DTS, 5 ch).
Сжатие фильма : 27.1 % сжатия (без учета ручного перераспределения битрейта, за счет большего сжатия конечных титров)
использовались программы
    DVDRemakePro
    Photoshop
    MuxMan
    Rebuilder и CCE (Cinema Craft Encoder), 5 проходов
    Работоспособность проверена на софтовом плеере Windows Media и бытовом LG
Свернуть
DVDInfo
    Title: Drevo.zhizni_2011_DVD5.[R.G.Daredevil]
    Size: 4.37 Gb ( 4 578 860,00 KBytes ) - DVD-5
    Enabled regions: 1, 2, 3, 4, 5, 6, 7, 8

    VTS_01 :
    Play Length: 00:00:00
    Video: PAL 4:3 (720x576) VBR

    VTS_02 :
    Play Length: 00:00:00
    Video: PAL 16:9 (720x576) VBR, Auto Letterboxed
    Audio:
    Russian (Dolby AC3, 2 ch)

    VTS_03 :
    Play Length: 00:00:00
    Video: PAL 16:9 (720x576) VBR, Auto Letterboxed
    Audio:
    Russian (Dolby AC3, 6 ch)
    Russian (Dolby AC3, 6 ch)

    VTS_04 :
    Play Length: 00:00:00
    Video: PAL 16:9 (720x576) VBR, Auto Letterboxed
    Audio:
    Russian (Dolby AC3, 2 ch)
    Russian (Dolby AC3, 2 ch)

    VTS_05 :
    Play Length: 00:00:00
    Video: PAL 16:9 (720x576) VBR, Auto Letterboxed
    Audio:
    Russian (Dolby AC3, 2 ch)
    Russian (Dolby AC3, 2 ch)

    VTS_06 :
    Play Length: 00:00:00
    Video: PAL 16:9 (720x576) VBR, Auto Letterboxed
    Audio:
    Russian (Dolby AC3, 2 ch)
    Russian (Dolby AC3, 2 ch)

    VTS_07 :
    Play Length: 00:00:00
    Video: PAL 4:3 (720x576) VBR
    Audio:
    English (Dolby AC3, 2 ch)
    English (Dolby AC3, 2 ch)

    VTS_08 :
    Play Length: 00:00:00
    Video: PAL 16:9 (720x576) VBR, Auto Letterboxed
    Audio:
    Russian (Dolby AC3, 2 ch)
    English (Dolby AC3, 2 ch)

    VTS_09 :
    Play Length: 02:12:48
    Video: PAL 16:9 (720x576) VBR, Auto Pan&Scan, Auto Letterboxed
    Audio:
    Russian (Dolby AC3, 6 ch)
    English (Dolby AC3, 6 ch)
    Subtitles:
    Russian
    Ukrainian
Свернуть
mediainfo
    Формат : MPEG-PS
    Размер файла : 1024 Мбайт
    Продолжительность : 30 м.
    Режим общего битрейта : Переменный
    Общий поток : 4677 Кбит/сек

    Видео
    Идентификатор : 224 (0xE0)
    Формат : MPEG Video
    Версия формата : Version 2
    Профиль формата : Main@Main
    Параметр BVOP формата : Да
    Параметр матрицы формата : Выборочная
    Продолжительность : 30 м.
    Вид битрейта : Переменный
    Битрейт : 3816 Кбит/сек
    Максимальный битрейт : 8374 Кбит/сек
    Ширина : 720 пикселей
    Высота : 576 пикселей
    Соотношение сторон : 16:9
    Частота кадров : 25,000 кадров/сек
    Стандарт вещания : PAL
    Цветовое пространство : YUV
    Субдискретизация насыщенности : 4:2:0
    Битовая глубина : 8 бит
    Тип развёртки : Чересстрочная
    Порядок развёртки : Верхнее поле первое
    Метод сжатия : С потерями
    Бит/(Пиксели*Кадры) : 0.368
    Размер потока : 835 Мбайт (82%)

    Аудио #1
    Идентификатор : 189 (0xBD)-128 (0x80)
    Формат : AC-3
    Формат/Информация : Audio Coding 3
    Расширение режима : CM (complete main)
    Режим смешивания : DVD-Video
    Продолжительность : 30 м.
    Вид битрейта : Постоянный
    Битрейт : 384 Кбит/сек
    Каналы : 6 каналов
    Расположение каналов : Front: L C R, Side: L R, LFE
    Частота : 48,0 КГц
    Битовая глубина : 16 бит
    Метод сжатия : С потерями
    Размер потока : 84,1 Мбайт (8%)

    Аудио #2
    Идентификатор : 189 (0xBD)-129 (0x81)
    Формат : AC-3
    Формат/Информация : Audio Coding 3
    Расширение режима : CM (complete main)
    Режим смешивания : DVD-Video
    Продолжительность : 30 м.
    Вид битрейта : Постоянный
    Битрейт : 384 Кбит/сек
    Каналы : 6 каналов
    Расположение каналов : Front: L C R, Side: L R, LFE
    Частота : 48,0 КГц
    Битовая глубина : 16 бит
    Метод сжатия : С потерями
    Размер потока : 84,1 Мбайт (8%)

    Меню

Свернуть
Знаете ли Вы, что...
  • Всего было отснято 370 миль плёнки, или 364 часа 30 минут материала. На его основе Терренс Малик планирует подготовить к выпуску специальную 6-часовую версию фильма.
  • Впервые о проекте Малик заговорил еще в 1978 году – тогда лента была известна, как «Q».
  • Изначально на главную роль пророчили Колина Фаррелла. Когда компания River Road вновь взялась за проект в 2008 году, велись переговоры также с Хитом Леджером.
Свернуть
Скриншоты

меню
Изображение
Изображение
Изображение
Свернуть
Изображение
Изображение
Изображение
Изображение
Изображение
Изображение
Свернуть
Не в сети
Профиль  
 Добавлено: 2011-11-26 12:42 (спустя 9 дней)
Аватара пользователя
Стаж: 8 лет
Сообщений: 55
Спасибок: 18
Лайков: 1
это же "арт хаус"???
Не в сети
Профиль  
Начать новую темуОтветить на тему  [ Сообщений: 2 ] 
Вы не можете начинать темы
Вы не можете отвечать на сообщения
Вы не можете редактировать свои сообщения
Вы не можете удалять свои сообщения