Правила форума

  • В этом разделе создание новых тем Запрещено.
  • Для создания новых тем пользуйтесь Корневым разделом DVD и HD фильмы.
Начать новую темуОтветить на тему  [ Сообщений: 2 ] 
Торрент файл
Размер: 4.24 GB • Зарегистрирован: 2 года 10 месяцев • Статус: Проверено
Скачан: 84 раза • Желающих скачать: 1 • Поблагодарили: 47 раз
 Раздают: 0  |  0 KB/s  ]   Качают: 0  |  0 KB/s  ] 
 Полного источника не было 4 дня 
Сообщения
 Добавлено: 2014-02-02 18:55
DVD Release Group
Аватара пользователя
Стаж: 7 лет 1 месяц
Сообщений: 3559
Спасибок: 247429
Лайков: 1020
Два ствола

2 Guns


Изображение


Год выпуска: 2013
Страна: США
Жанр: Боевик, триллер, драма, комедия, криминал
Продолжительность: 01:44:51
Перевод: Профессиональный (полное дублирование)
Cубтитры: Русские, английские, болгарские, хорватские, чешские, эстонские, иврит, венгерские, исландские, латышские, литовские, польские, португальские, румынские, сербские, словацкие, словенские, хинди, тамильские, телугу, украинские
Режиссер: Бальтасар Кормакур
В ролях: Дензел Вашингтон, Марк Уолберг, Пола Пэттон, Билл Пэкстон, Эдвард Джеймс Олмос, Джеймс Марсден, Роберт Джон Бёрк, Фред Уорд, Патрик Фишлер, Лаки Джонсон, Грег Спролс, Эдгар Арреола, Дерек Солорсано, Кайл Расселл Клементс, Мэтт Кук, Тим Белл, Джон МакКоннелл, Эмбир Чилдерс, Линдси Дж. Смит, Джейсон Киркпатрик
Описание: Это история двух грабителей, которые на самом деле не те, кем кажутся. Один из них — агент из управления по борьбе с наркотиками, а другой — тайный агент разведки ВМС. Сами того не желая, они занимаются расследованием дел друг друга, а также воруют деньги у мафии. Через некоторое время героям придется украсть 50 миллионов долларов у ЦРУ.
Изображение
Дополнительно:
Исходник: DVD9 (6.0Гб) [лицензия, PAL 16:9].
Убрано: Удалённые и расширенные сцены, Czech(Ceske) (Dolby AC3, 6 ch), Magyar (Dolby AC3, 6 ch), Polish (Dolby AC3, 6 ch), заставки и предупреждение.
Сжатие фильма нет.
Работоспособность проверена на софтовом плеере Windows Media и бытовом LG.
Sample:
http://multi-up.com/946838
Качество: DVD5 (сжатый)
Формат: DVD Video
Видео кодек: MPEG2
Аудио кодек: AC3
Видео: 720х576 25fps 4661Kbps
Аудио:
Аудио Rus: 48kHz 6ch 384Kbps
Аудио Ukr: 48kHz 2ch 192Kbps
Аудио Eng: 48kHz 6ch 448Kbps
"MediaInfo"
Формат : MPEG-PS
Размер файла : 1024 Мбайт
Продолжительность : 24 м.
Режим общего битрейта : Переменный
Общий поток : 5801 Кбит/сек

Видео
Идентификатор : 224 (0xE0)
Формат : MPEG Video
Версия формата : Version 2
Профиль формата : Main@Main
Параметр BVOP формата : Да
Параметр матрицы формата : Выборочная
Продолжительность : 24 м.
Вид битрейта : Переменный
Битрейт : 4661 Кбит/сек
Ширина : 720 пикселей
Высота : 576 пикселей
Соотношение сторон : 2,35:1
Частота кадров : 25,000 кадров/сек
Стандарт вещания : PAL
Цветовое пространство : YUV
Субдискретизация насыщенности : 4:2:0
Битовая глубина : 8 бит
Тип развёртки : Прогрессивная
Порядок развёртки : Верхнее поле первое
Метод сжатия : С потерями
Бит/(Пиксели*Кадры) : 0.450
Размер потока : 823 Мбайт (80%)
Основные цвета : BT.470-2 System B, BT.470-2 System G
Характеристики трансфера : BT.470-2 System B, BT.470-2 System G
Коэффициенты матрицы : BT.470-2 System B, BT.470-2 System G

Аудио #1
Идентификатор : 189 (0xBD)-128 (0x80)
Формат : AC-3
Формат/Информация : Audio Coding 3
Расширение режима : CM (complete main)
Режим смешивания : DVD-Video
Продолжительность : 24 м.
Вид битрейта : Постоянный
Битрейт : 448 Кбит/сек
Каналы : 6 каналов
Расположение каналов : Front: L C R, Side: L R, LFE
Частота : 48,0 КГц
Битовая глубина : 16 бит
Метод сжатия : С потерями
Размер потока : 79,1 Мбайт (8%)

Аудио #2
Идентификатор : 189 (0xBD)-132 (0x84)
Формат : AC-3
Формат/Информация : Audio Coding 3
Расширение режима : CM (complete main)
Режим смешивания : DVD-Video
Продолжительность : 24 м.
Вид битрейта : Постоянный
Битрейт : 384 Кбит/сек
Каналы : 6 каналов
Расположение каналов : Front: L C R, Side: L R, LFE
Частота : 48,0 КГц
Битовая глубина : 16 бит
Метод сжатия : С потерями
Размер потока : 67,8 Мбайт (7%)

Аудио #3
Идентификатор : 189 (0xBD)-133 (0x85)
Формат : AC-3
Формат/Информация : Audio Coding 3
Профиль формата : Dolby Digital
Расширение режима : CM (complete main)
Режим смешивания : DVD-Video
Продолжительность : 24 м.
Вид битрейта : Постоянный
Битрейт : 192 Кбит/сек
Каналы : 2 канала
Расположение каналов : Front: L R
Частота : 48,0 КГц
Битовая глубина : 16 бит
Метод сжатия : С потерями
Размер потока : 33,9 Мбайт (3%)

Текст #1
Идентификатор : 189 (0xBD)-52 (0x34)
Формат : RLE
Формат/Информация : Run-length encoding
Режим смешивания : DVD-Video

Текст #2
Идентификатор : 189 (0xBD)-32 (0x20)
Формат : RLE
Формат/Информация : Run-length encoding
Режим смешивания : DVD-Video

Текст #3
Идентификатор : 189 (0xBD)-33 (0x21)
Формат : RLE
Формат/Информация : Run-length encoding
Режим смешивания : DVD-Video

Текст #4
Идентификатор : 189 (0xBD)-34 (0x22)
Формат : RLE
Формат/Информация : Run-length encoding
Режим смешивания : DVD-Video

Текст #5
Идентификатор : 189 (0xBD)-35 (0x23)
Формат : RLE
Формат/Информация : Run-length encoding
Режим смешивания : DVD-Video

Текст #6
Идентификатор : 189 (0xBD)-36 (0x24)
Формат : RLE
Формат/Информация : Run-length encoding
Режим смешивания : DVD-Video

Текст #7
Идентификатор : 189 (0xBD)-37 (0x25)
Формат : RLE
Формат/Информация : Run-length encoding
Режим смешивания : DVD-Video

Текст #8
Идентификатор : 189 (0xBD)-38 (0x26)
Формат : RLE
Формат/Информация : Run-length encoding
Режим смешивания : DVD-Video

Текст #9
Идентификатор : 189 (0xBD)-39 (0x27)
Формат : RLE
Формат/Информация : Run-length encoding
Режим смешивания : DVD-Video

Текст #10
Идентификатор : 189 (0xBD)-40 (0x28)
Формат : RLE
Формат/Информация : Run-length encoding
Режим смешивания : DVD-Video

Текст #11
Идентификатор : 189 (0xBD)-41 (0x29)
Формат : RLE
Формат/Информация : Run-length encoding
Режим смешивания : DVD-Video

Текст #12
Идентификатор : 189 (0xBD)-42 (0x2A)
Формат : RLE
Формат/Информация : Run-length encoding
Режим смешивания : DVD-Video

Текст #13
Идентификатор : 189 (0xBD)-43 (0x2B)
Формат : RLE
Формат/Информация : Run-length encoding
Режим смешивания : DVD-Video

Текст #14
Идентификатор : 189 (0xBD)-44 (0x2C)
Формат : RLE
Формат/Информация : Run-length encoding
Режим смешивания : DVD-Video

Текст #15
Идентификатор : 189 (0xBD)-45 (0x2D)
Формат : RLE
Формат/Информация : Run-length encoding
Режим смешивания : DVD-Video

Текст #16
Идентификатор : 189 (0xBD)-46 (0x2E)
Формат : RLE
Формат/Информация : Run-length encoding
Режим смешивания : DVD-Video

Текст #17
Идентификатор : 189 (0xBD)-47 (0x2F)
Формат : RLE
Формат/Информация : Run-length encoding
Режим смешивания : DVD-Video

Текст #18
Идентификатор : 189 (0xBD)-48 (0x30)
Формат : RLE
Формат/Информация : Run-length encoding
Режим смешивания : DVD-Video

Текст #19
Идентификатор : 189 (0xBD)-49 (0x31)
Формат : RLE
Формат/Информация : Run-length encoding
Режим смешивания : DVD-Video

Текст #20
Идентификатор : 189 (0xBD)-50 (0x32)
Формат : RLE
Формат/Информация : Run-length encoding
Режим смешивания : DVD-Video

Текст #21
Идентификатор : 189 (0xBD)-51 (0x33)
Формат : RLE
Формат/Информация : Run-length encoding
Режим смешивания : DVD-Video

Меню
Свернуть

"Скриншоты"
Изображение
Изображение
Изображение
Изображение
Изображение
Изображение
Изображение
Изображение
Изображение
Изображение
Свернуть
В сети
Профиль  
 Добавлено: 2014-02-08 16:34 (спустя 5 дней)
Кинокомментатор
Аватара пользователя
Стаж: 9 лет 1 месяц
Сообщений: 1332
Лайков: 54
хорошая киноха! и качество хорошее) всё очень даже смотрибельно и интересно) гонки стрельба и всё такое) 7/10
Не в сети
Профиль  
Начать новую темуОтветить на тему  [ Сообщений: 2 ] 
Вы не можете начинать темы
Вы не можете отвечать на сообщения
Вы не можете редактировать свои сообщения
Вы не можете удалять свои сообщения