Правила форума

  • В этом разделе создание новых тем Запрещено.
  • Для создания новых тем пользуйтесь Корневым разделом DVD и HD фильмы.
Начать новую темуОтветить на тему  [ 1 сообщение ] 
Торрент файл
Размер: 7.36 GB • Зарегистрирован: 4 года 11 месяцев • Статус: Проверено
Скачан: 66 раз • Желающих скачать: 0 • Поблагодарили: 10 раз
 Раздают: 0  |  0 KB/s  ]   Качают: 0  |  0 KB/s  ] 
 Полного источника не было 3 года 2 месяца 
Сообщения
 Добавлено: 2011-12-15 19:37
Аватара пользователя
Стаж: 5 лет 5 месяцев
Возраст: 30
Сообщений: 353
Спасибок: 7455
Двойник дьявола / The Devil's Double

Изображение


Год выпуска: 2011
Страна: Нидерланды, Бельгия (Corrino Media Corporation, Corsan, Staccato Films)
Слоган: «Секс... власть... куча денег, что ещё нужно 'принцу' у которого есть всё?»
Жанр: драма, биография
Продолжительность: 01:43:44
Перевод: Профессиональный (дубляж)
Дублеры: Александр Гаврилин, Наталья Грачева, Александр Новиков, Иван Жарков, Анастасия Нестеренко + Оригинальная звуковая дорожка + Профессиональный (дубляж)
Дублеры: Александр Гаврилин, Наталья Грачева, Александр Новиков, Иван Жарков, Анастасия Нестеренко
Субтитры: Русские, украинские

Режиссёр: Ли Тамахори / Lee Tamahori
Сценарист: Майкл Томас, Латиф Яхиа
Продюсер: Catherine Vandeleene, Пол Брюлс, Майкл Джон Федун
Оператор: Сэм МакКёрди
Композитор: Кристиан Хенсон

В ролях: Доминик Купер, Людивин Санье, Раад Рави, Филип Куэст, Мимун Оайясса, Халид Лэйт, Дар Салим, Нассер Мемарзиа, Мем Ферда, Пано Масти

Описание: Секс… Власть… Слишком много денег… Что еще может понадобиться «Принцу», у которого есть все? Разве что двойник.
На него можно спихнуть всю рутину, а в опасных ситуациях он примет удар на себя. Но и Двойник не останется без награды — он получит все, что есть у принца. Все, кроме женщины, которая станет единственным, что Двойник по-настоящему возжелает.

Доп.информация: Фильм о фильме, Латиф и Удэй, дизайн фильма, трейлер, анонсы
Рейтинг MPAA: Рейтинг R (Подростки до 17 лет допускаются на фильм только в сопровождении одного из родителей)
Мировая премьера: 22 января 2011
Премьера в России: 11 августа 2011, «West»
Бюджет: $19 100 000

Изображение Изображение Изображение

Качество: DVD9 R5
Формат: DVD Video
Видео кодек: MPEG2
Аудио кодек: DTS
Видео: PAL 16:9 (720x576(0.647)) MPEG Video, 25,000 кадр/сек, 6706 Кбит/сек
Аудио #1: Russian (Dolby AC3, 6 ch) 384 Кбит/сек, 48,0 КГц [Профессиональный (дубляж)]
Аудио #2: English (Dolby AC3, 6 ch) 384 Кбит/сек, 48,0 КГц [Оригинальная звуковая дорожка]
Аудио #3: Russian (DTS, 5 ch) 768 Кбит/сек, 48,0 КГц [Профессиональный (дубляж)]
Субтитры: Русские, украинские

"DVDInfo"
Title:
Size: 7.36 Gb ( 7 717 550 KBytes ) - DVD-9
Enabled regions: 1, 2, 3, 4, 5, 6, 7, 8

VTS_01 :
Play Length: 00:00:23
Video: PAL 4:3 (720x576) VBR

VTS_02 :
Play Length: 00:02:27
Video: PAL 16:9 (720x576) VBR, Auto Pan&Scan
Audio:
Russian (Dolby AC3, 2 ch)
Russian (Dolby AC3, 2 ch)

VTS_03 :
Play Length: 00:04:43
Video: PAL 16:9 (720x576) VBR, Auto Pan&Scan
Audio:
Russian (Dolby AC3, 2 ch)
English (Dolby AC3, 2 ch)

VTS_04 :
Play Length: 00:03:25
Video: PAL 16:9 (720x576) VBR, Auto Pan&Scan
Audio:
Russian (Dolby AC3, 2 ch)
English (Dolby AC3, 2 ch)

VTS_05 :
Play Length: 00:04:35
Video: PAL 16:9 (720x576) VBR, Auto Pan&Scan
Audio:
Russian (Dolby AC3, 2 ch)
English (Dolby AC3, 2 ch)

VTS_06 :
Play Length: 00:04:34
Video: PAL 16:9 (720x576) VBR, Auto Pan&Scan
Audio:
Russian (Dolby AC3, 2 ch)
English (Dolby AC3, 2 ch)

VTS_07 :
Play Length: 00:02:24
Video: PAL 16:9 (720x576) VBR, Auto Pan&Scan
Audio:
Russian (Dolby AC3, 2 ch)
Russian (Dolby AC3, 2 ch)

VTS_08 :
Play Length: 00:02:16
Video: PAL 16:9 (720x576) VBR, Auto Pan&Scan
Audio:
Russian (Dolby AC3, 2 ch)
Russian (Dolby AC3, 2 ch)

VTS_09 :
Play Length: 00:01:10
Video: PAL 4:3 (720x576) VBR
Audio:
English (Dolby AC3, 2 ch)
English (Dolby AC3, 2 ch)

VTS_10 :
Play Length: 01:43:44
Video: PAL 16:9 (720x576) VBR, Auto Pan&Scan, Auto Letterboxed
Audio:
Russian (Dolby AC3, 6 ch)
English (Dolby AC3, 6 ch)
Russian (DTS, 5 ch)
Subtitles:
Russian
Ukrainian
Свернуть

"MediaInfo"
Общее
Полное имя : G:\Новинки 2011\Dvojnik.d'javola.2011.DVD9\VIDEO_TS\VTS_10_1.VOB
Формат : MPEG-PS
Размер файла : 1024 Мбайт
Продолжительность : 17 м.
Общий поток : 8396 Кбит/сек

Видео
Идентификатор : 224 (0xE0)
Формат : MPEG Video
Версия формата : Version 2
Профиль формата : Main@Main
Параметр BVOP формата : Да
Параметр матрицы формата : Выборочная
Продолжительность : 17 м.
Вид битрейта : Переменный
Битрейт : 6706 Кбит/сек
Максимальный битрейт : 7900 Кбит/сек
Ширина : 720 пикселей
Высота : 576 пикселей
Соотношение сторон : 16:9
Частота кадров : 25,000 кадров/сек
Стандарт вещания : PAL
Цветовое пространство : YUV
Субдискретизация насыщенности : 4:2:0
Битовая глубина : 8 бит
Тип развёртки : Чересстрочная
Порядок развёртки : Верхнее поле первое
Метод сжатия : С потерями
Бит/(Пиксели*Кадры) : 0.647
Размер потока : 818 Мбайт (80%)

Аудио #1
Идентификатор : 189 (0xBD)-128 (0x80)
Формат : AC-3
Формат/Информация : Audio Coding 3
Расширение режима : CM (complete main)
Режим смешивания : DVD-Video
Продолжительность : 17 м.
Вид битрейта : Постоянный
Битрейт : 384 Кбит/сек
Каналы : 6 каналов
Расположение каналов : Front: L C R, Side: L R, LFE
Частота : 48,0 КГц
Битовая глубина : 16 бит
Метод сжатия : С потерями
Размер потока : 46,8 Мбайт (5%)

Аудио #2
Идентификатор : 189 (0xBD)-129 (0x81)
Формат : AC-3
Формат/Информация : Audio Coding 3
Расширение режима : CM (complete main)
Режим смешивания : DVD-Video
Продолжительность : 17 м.
Вид битрейта : Постоянный
Битрейт : 384 Кбит/сек
Каналы : 6 каналов
Расположение каналов : Front: L C R, Side: L R, LFE
Частота : 48,0 КГц
Битовая глубина : 16 бит
Метод сжатия : С потерями
Размер потока : 46,8 Мбайт (5%)

Аудио #3
Идентификатор : 189 (0xBD)-138 (0x8A)
Формат : DTS
Формат/Информация : Digital Theater Systems
Режим смешивания : DVD-Video
Продолжительность : 17 м.
Вид битрейта : Постоянный
Битрейт : 755 Кбит/сек
Каналы : 6 каналов
Расположение каналов : Front: L C R, Side: L R, LFE
Частота : 48,0 КГц
Битовая глубина : 24 бит
Метод сжатия : С потерями
Размер потока : 92,0 Мбайт (9%)

Текст
Идентификатор : 189 (0xBD)-32 (0x20)
Формат : RLE
Формат/Информация : Run-length encoding
Режим смешивания : DVD-Video
Задержка видео : 440 мс.

Свернуть

Скриншоты
Скриншоты меню
Изображение
Изображение
Изображение
Изображение
Свернуть
Изображение
Изображение
Изображение
Изображение
Изображение
Изображение
Изображение
Свернуть

Знаете ли Вы, что...
Съёмки фильма проходили на Мальте, где в отличии от Ирака, автомобильное движение - левостороннее, поэтому в фильме использованы автомобили с правым рулем, что не соответствует реалиям иракской жизни.
Свернуть

Изображение
Не в сети
Профиль  
Начать новую темуОтветить на тему  [ 1 сообщение ] 
Вы не можете начинать темы
Вы не можете отвечать на сообщения
Вы не можете редактировать свои сообщения
Вы не можете удалять свои сообщения