Правила форума

  • В этом разделе создание новых тем Запрещено.
  • Для создания новых тем пользуйтесь Корневым разделом DVD и HD фильмы.
Начать новую темуОтветить на тему  [ Сообщений: 2 ] 
Торрент файл
Размер: 6.53 GB • Зарегистрирован: 5 лет 3 месяца • Статус: Проверено
Скачан: 41 раз • Желающих скачать: 0 • Поблагодарили: 8 раз
 Раздают: 0  |  0 KB/s  ]   Качают: 0  |  0 KB/s  ] 
 Полного источника не было 3 года 2 месяца 
Сообщения
 Добавлено: 2011-08-12 00:32
Аватара пользователя
Стаж: 6 лет 6 месяцев
Сообщений: 214
Спасибок: 10697
Еще один год
Another Year

Изображение

Год выпуска: 2010
Страна: Великобритания

Жанр: драма, комедия
Продолжительность: 02:04:23
Перевод: Профессиональный (многоголосый, закадровый)
Режиссер: Майк Ли
В ролях: Джим Броудбент, Лесли Мэнвиль, Рут Шин, Питер Уайт, Дэвид Брэдли, Мишель Остин, Филип Дэвис, Имельда Стонтон, Стюарт МакКуорри, Айлин Дэвис, Мэри Джо Рэндл, Бен Робертс, Дэвид Хоббс, Бади Уззаман, Ральф Инесон, Эдна Дорэ, Гэри Пауэлл, Лайза МакДоналд

Бюджет: £10 000 000
Сборы в США: $3 205 706
Сборы в России: $38 455
Сборы в мире: $18 493 148

Мировая премьера: 15 мая 2010
Релиз на DVD: 11 августа 2011, «Вольга»
Описание: Том и Джерри - семейная пара предпенсионного возраста. Вечера и выходные они коротают с родными и близкими - единственным сыном Джо, острой на язык Мэри, не слишком опрятным сослуживцем Тома Кеном; Ужин и неспешная беседа, чай и вино, ободряющие советы и словесные перепалки. Любовь и тепло, надежда и отчаяние. Общение. Одиночество. Рождение. Смерть. Весна, лето, осень, зима. Время проходит
Изображение 7.5/10 (7,054 votes) Изображение 7.828 (269)
MPAA: Изображение - Детям до 13 лет просмотр не желателен

Релиз группы: Изображение Раздача: Изображение
Изображение
Формат: DVD Video
Качество: DVD9 R5
Видео: PAL 16:9 (720x576)
Аудио: Russian / English (Dolby AC3, 6 ch)
Субтитры: Russian
Размер: 6.53 GB
Дополнительно: Интервью
NFO
Title:
Size: 6.53 Gb ( 6 848 832 KBytes ) - DVD-9
Enabled regions: 1, 2, 3, 4, 5, 6, 7, 8

VTS_01 :
Play Length: 02:04:23
Video: PAL 16:9 (720x576) VBR, Auto Pan&Scan, Auto Letterboxed
Audio:
Russian (Dolby AC3, 6 ch)
English (Dolby AC3, 6 ch)
Subtitles:
Not specified
Not specified

VTS_02 :
Play Length: 00:00:10
Video: PAL 16:9 (720x576) VBR, Auto Pan&Scan, Auto Letterboxed

VTS_03 :
Play Length: 00:00:06
Video: PAL 16:9 (720x576) VBR, Auto Pan&Scan, Auto Letterboxed

VTS_04 :
Play Length: 00:27:35
Video: PAL 16:9 (720x576) VBR, Auto Pan&Scan, Auto Letterboxed
Audio:
Not specified (Dolby AC3, 2 ch)
Свернуть
MediaInfo
General
Complete name : D:\Temp\FullDisc\ONE_YEAR\VIDEO_TS\VTS_01_2.VOB
Format : MPEG-PS
File size : 1 024 MiB
Duration : 23mn 35s
Overall bit rate : 6 070 Kbps

Audio #1
ID : 189 (0xBD)-128 (0x80)
Format : AC-3
Format/Info : Audio Coding 3
Mode extension : CM (complete main)
Muxing mode : DVD-Video
Duration : 23mn 35s
Bit rate mode : Constant
Bit rate : 256 Kbps
Channel(s) : 6 channels
Channel positions : Front: L C R, Side: L R, LFE
Sampling rate : 48.0 KHz
Bit depth : 16 bits
Compression mode : Lossy
Stream size : 43.2 MiB (4%)

Audio #2
ID : 189 (0xBD)-129 (0x81)
Format : AC-3
Format/Info : Audio Coding 3
Mode extension : CM (complete main)
Muxing mode : DVD-Video
Duration : 23mn 35s
Bit rate mode : Constant
Bit rate : 256 Kbps
Channel(s) : 6 channels
Channel positions : Front: L C R, Side: L R, LFE
Sampling rate : 48.0 KHz
Bit depth : 16 bits
Compression mode : Lossy
Stream size : 43.2 MiB (4%)

Text
ID : 189 (0xBD)-33 (0x21)
Format : RLE
Format/Info : Run-length encoding
Muxing mode : DVD-Video
Свернуть

"Скриншоты"

Изображение
Изображение
Изображение
Изображение
Изображение
Свернуть
Не в сети
Профиль  
 Добавлено: 2011-08-12 16:19 (спустя 15 часов)
Аватара пользователя
Стаж: 8 лет 7 месяцев
Сообщений: 760
Спасибок: 3256
Лайков: 7
Описание конечно понятней-понятливого))) Но всё равно смотреть не буду, ибо на работе и дома хватает старых пердунов)) :-D
Не в сети
Профиль  
Начать новую темуОтветить на тему  [ Сообщений: 2 ] 
Вы не можете начинать темы
Вы не можете отвечать на сообщения
Вы не можете редактировать свои сообщения
Вы не можете удалять свои сообщения