Правила форума

  • В этом разделе создание новых тем Запрещено.
  • Для создания новых тем пользуйтесь Корневым разделом DVD и HD фильмы.
Начать новую темуОтветить на тему  [ Сообщений: 5 ] 
Торрент файл
Размер: 4.37 GB • Зарегистрирован: 4 года 8 месяцев • Статус: Проверено
Скачан: 251 раз • Желающих скачать: 0 • Поблагодарили: 28 раз
 Раздают: 0  |  0 KB/s  ]   Качают: 0  |  0 KB/s  ] 
 Полного источника не было 3 года 2 месяца 
Сообщения
 Добавлено: 2012-03-14 16:28
Руководитель релиз-группы
Аватара пользователя
Стаж: 7 лет 4 месяца
Возраст: 31
Сообщений: 3407
Спасибок: 46728
Лайков: 5
Изображение

Ева: Искусственный разум
Eva


Год выпуска: 2011
Страна: Испания
Жанр: фантастика, фэнтези, драма
Продолжительность: 01:30:53
Перевод: Профессиональный (многоголосый, закадровый)
Режиссер: Кике Маильо
Сценарий: Sergi Belbel, Кристина Клементе, Марти Рока
Продюсер: Сержи Касамитьяна, Франческ Оливарес
Оператор: Арнау Вол Коломер
Композитор: Евгений Гальперин, Саша Гальперин
В ролях: Даниэль Брюль, Марта Этура, Льюис Омар, Альберто Эмманн, Клаудия Вега, Анн Кановас, Сара Роза, Манель Дуэсо, Джорди Диаз
Описание: Алекс, известный инженер в сфере кибернетики, возвращается в Санта-Ирину, чтобы заняться необычным проектом для факультета Робототехники своего университета - созданием робота-ребенка. В течение десяти лет, пока его не было в городе, жизнь для его брата Дэвида и девушки Ланы шла своим чередом: теперь они живут вместе и у них есть дочь Ева. Между Алексом и Евой сразу налаживаются хорошие отношения, и так получается, что Ева самым неожиданным образом меняет подход Алекса к его разработкам. Для них начинается путешествие, которое обещает интригующую кульминацию.
Изображение
Релиз: Изображение Раздача группы: Изображение
Качество: DVD5 (сжатый)
Формат: DVD Video
Видео: MPEG2; PAL 16:9 (720x576)
Аудио: Dolby AC3, 6 ch, 448 Kbps Russian
Субтитры: русские
Дополнительная информация :
Исходник : DVD9 (5.59 Гб) [лицензия, PAL 16:9]
Убрано : часть рекламных трейлеров, Russian (DTS, 5 ch), Espanol (Dolby AC3, 6 ch)
Сжатие фильма : нет
Изображение
использовались программы
    DVDRemakePro
    Photoshop
    MuxMan
    Работоспособность проверена на софтовом плеере Windows Media и бытовом LG
Свернуть
DVDInfo
    Title: Eva.Iskusstvenniy.razum_2011_DVD5.[R.G.Daredevil]
    Size: 4.37 Gb ( 4 578 168,00 KBytes ) - DVD-5
    Enabled regions: 1, 2, 3, 4, 5, 6, 7, 8

    VTS_01 :
    Play Length: 00:00:05
    Video: PAL 4:3 (720x576) VBR
    Subtitles:
    English
    English

    VTS_02 :
    Play Length: 00:00:09
    Video: PAL 16:9 (720x576) VBR, Auto Letterboxed
    Audio:
    Not specified (Dolby AC3, 2 ch)
    Subtitles:
    Not specified

    VTS_03 :
    Play Length: 00:00:00
    Video: PAL 16:9 (720x576) VBR, Auto Letterboxed
    Audio:
    Not specified (Dolby AC3, 2 ch)
    Not specified (Dolby AC3, 2 ch)
    Not specified (Dolby AC3, 2 ch)
    Subtitles:
    Not specified

    VTS_04 :
    Play Length: 01:30:53
    Video: PAL 16:9 (720x576) VBR, Auto Letterboxed
    Audio:
    Russian (Dolby AC3, 6 ch)
    Subtitles:
    Russian

    VTS_05 :
    Play Length: 00:00:00
    Video: PAL 16:9 (720x576) VBR, Auto Letterboxed
    Audio:
    Not specified (Dolby AC3, 2 ch)
    Subtitles:
    Not specified

    VTS_06 :
    Play Length: 00:00:00
    Video: PAL 16:9 (720x576) VBR, Auto Letterboxed
    Audio:
    Not specified (Dolby AC3, 6 ch)
    Subtitles:
    Not specified

    VTS_07 :
    Play Length: 00:00:00
    Video: PAL 16:9 (720x576) VBR, Auto Letterboxed
    Audio:
    Not specified (Dolby AC3, 2 ch)
    Subtitles:
    Not specified

    VTS_08 :
    Play Length: 00:02:24
    Video: PAL 16:9 (720x576) VBR, Auto Letterboxed
    Audio:
    Not specified (Dolby AC3, 2 ch)
    Subtitles:
    Not specified

    VTS_09 :
    Play Length: 00:00:00
    Video: PAL 16:9 (720x576) VBR, Auto Letterboxed
    Audio:
    Not specified (Dolby AC3, 6 ch)
    Subtitles:
    Not specified

    VTS_10 :
    Play Length: 00:04:03
    Video: PAL 16:9 (720x576) VBR, Auto Letterboxed
Свернуть
mediainfo
    Формат : MPEG-PS
    Размер файла : 1024 Мбайт
    Продолжительность : 21 м.
    Режим общего битрейта : Переменный
    Общий поток : 6575 Кбит/сек

    Видео
    Идентификатор : 224 (0xE0)
    Формат : MPEG Video
    Версия формата : Version 2
    Профиль формата : Main@Main
    Параметр BVOP формата : Да
    Параметр матрицы формата : По умолчанию
    Параметр GOP формата : M=3, N=12
    Продолжительность : 21 м.
    Вид битрейта : Переменный
    Битрейт : 5997 Кбит/сек
    Максимальный битрейт : 9500 Кбит/сек
    Ширина : 720 пикселей
    Высота : 576 пикселей
    Соотношение сторон : 16:9
    Частота кадров : 25,000 кадров/сек
    Стандарт вещания : PAL
    Цветовое пространство : YUV
    Субдискретизация насыщенности : 4:2:0
    Битовая глубина : 8 бит
    Тип развёртки : Прогрессивная
    Метод сжатия : С потерями
    Бит/(Пиксели*Кадры) : 0.578
    Размер потока : 934 Мбайт (91%)

    Аудио
    Идентификатор : 189 (0xBD)-128 (0x80)
    Формат : AC-3
    Формат/Информация : Audio Coding 3
    Расширение режима : CM (complete main)
    Режим смешивания : DVD-Video
    Продолжительность : 21 м.
    Вид битрейта : Постоянный
    Битрейт : 448 Кбит/сек
    Каналы : 6 каналов
    Расположение каналов : Front: L C R, Side: L R, LFE
    Частота : 48,0 КГц
    Битовая глубина : 16 бит
    Метод сжатия : С потерями
    Размер потока : 69,7 Мбайт (7%)

    Текст
    Идентификатор : 189 (0xBD)-32 (0x20)
    Формат : RLE
    Формат/Информация : Run-length encoding
    Режим смешивания : DVD-Video

    Меню
Свернуть
Скриншоты

меню
Изображение
Изображение
Изображение
Изображение
Изображение
Изображение
Свернуть
Изображение
Изображение
Изображение
Изображение
Свернуть
Не в сети
Профиль  
 Добавлено: 2012-03-15 17:13 (спустя 1 день)
Аватара пользователя
Стаж: 6 лет 11 месяцев
Сообщений: 167
Кто смотрел опишите в двух словах!!!!
Не в сети
Профиль  
 Добавлено: 2012-03-17 14:42 (спустя 1 день 21 час)
Стаж: 8 лет 3 месяца
Возраст: 33
Сообщений: 45
Спасибок: 95
На любителя. очень грустно.
Не в сети
Профиль  
 Добавлено: 2012-03-20 18:35 (спустя 3 дня)
Стаж: 8 лет 7 месяцев
Сообщений: 16
ох и бред!!! нуднее фильма не видел!
Не в сети
Профиль  
 Добавлено: 2012-04-25 05:49 (спустя 1 месяц 4 дня)
Top-seeder
Аватара пользователя
Стаж: 8 лет 10 месяцев
Возраст: 29
Сообщений: 329
Спасибок: 658
Лайков: 12

FOX_i:

ох и бред!!! нуднее фильма не видел!
не правда.


Фильм, скажем так, не типичный. Смотрится спокойно, конец необычный.
Можете посмотреть вечером с девушкой.
Не в сети
Профиль  
Начать новую темуОтветить на тему  [ Сообщений: 5 ] 
Вы не можете начинать темы
Вы не можете отвечать на сообщения
Вы не можете редактировать свои сообщения
Вы не можете удалять свои сообщения