Правила форума

  • В этом разделе создание новых тем Запрещено.
  • Для создания новых тем пользуйтесь Корневым разделом DVD и HD фильмы.
Начать новую темуОтветить на тему  [ Сообщений: 2 ] 
Торрент файл
Размер: 4.37 GB • Зарегистрирован: 4 года • Статус: Проверено
Скачан: 218 раз • Желающих скачать: 0 • Поблагодарили: 61 раз
 Раздают: 0  |  0 KB/s  ]   Качают: 0  |  0 KB/s  ] 
 Полного источника не было 9 месяцев 
Сообщения
 Добавлено: 2012-12-07 07:52
DVD Release Group
Аватара пользователя
Стаж: 7 лет 1 месяц
Сообщений: 3563
Спасибок: 247498
Лайков: 1020
Эволюция Борна

The Bourne Legacy

«В игре всегда несколько фигур»


Изображение


Год выпуска: 2012
Страна: США / Bourne Film Productions, Captivate Entertainment, Relativity Media, Universal Pictures
Жанр: Боевик, триллер, детектив, приключения
Продолжительность: 02:09:24
Перевод: Профессиональный (полное дублирование)
Cубтитры: Английские, русские, эстонские, латышские, литовские, итальянские, испанские, португальские, румынские
Режиссер: Тони Гилрой
В ролях: Джереми Реннер, Рейчел Вайс, Эдвард Нортон, Джоан Аллен, Альберт Финни, Скотт Гленн, Стейси Кич, Донна Мерфи, Майкл Чернус, Кори Столл
Описание: В игре всегда несколько фигур. Одна из них — Джейсон Борн, другая — совершенный агент Аарон Кросс. Их возможности безграничны. Но даже у идеального оружия бывают сбои…
Кинопоиск: 6.6 (11453)
IMDb: 6.8 (56322)
Дополнительно:
Исходник: DVD9 (7.62Гб) [лицензия, PAL 16:9].
Убрано: Italian (Dolby AC3, 6 ch), Spanish (Dolby AC3, 6 ch), заставки и предупреждение.
Сжатие фильма 35% сжатия (без учета ручного перераспределения битрейта, за счет большего сжатия конечных титров).
Работоспособность проверена на софтовом плеере Windows Media и бытовом LG.
Sample:
http://multi-up.com/800017
Качество: DVD5 (сжатый)
Формат: DVD Video
Видео кодек: MPEG2
Аудио кодек: AC3
Видео: 720х576 25fps 4029Kbps
Аудио:
Аудио Rus: 48kHz 6ch 384Kbps
Аудио Eng: 48kHz 6ch 384Kbps
"MediaInfo"
Формат : MPEG-PS
Размер файла : 1024 Мбайт
Продолжительность : 29 м.
Режим общего битрейта : Переменный
Общий поток : 4895 Кбит/сек

Видео
Идентификатор : 224 (0xE0)
Формат : MPEG Video
Версия формата : Version 2
Профиль формата : Main@Main
Параметр BVOP формата : Да
Параметр матрицы формата : Выборочная
Продолжительность : 29 м.
Вид битрейта : Переменный
Битрейт : 4029 Кбит/сек
Максимальный битрейт : 8201 Кбит/сек
Ширина : 720 пикселей
Высота : 576 пикселей
Соотношение сторон : 16:9
Частота кадров : 25,000 кадров/сек
Стандарт вещания : PAL
Цветовое пространство : YUV
Субдискретизация насыщенности : 4:2:0
Битовая глубина : 8 бит
Тип развёртки : Чересстрочная
Порядок развёртки : Верхнее поле первое
Метод сжатия : С потерями
Бит/(Пиксели*Кадры) : 0.389
Размер потока : 843 Мбайт (82%)

Аудио #1
Идентификатор : 189 (0xBD)-128 (0x80)
Формат : AC-3
Формат/Информация : Audio Coding 3
Расширение режима : CM (complete main)
Режим смешивания : DVD-Video
Продолжительность : 29 м.
Вид битрейта : Постоянный
Битрейт : 384 Кбит/сек
Каналы : 6 каналов
Расположение каналов : Front: L C R, Side: L R, LFE
Частота : 48,0 КГц
Битовая глубина : 16 бит
Метод сжатия : С потерями
Размер потока : 80,3 Мбайт (8%)

Аудио #2
Идентификатор : 189 (0xBD)-131 (0x83)
Формат : AC-3
Формат/Информация : Audio Coding 3
Расширение режима : CM (complete main)
Режим смешивания : DVD-Video
Продолжительность : 29 м.
Вид битрейта : Постоянный
Битрейт : 384 Кбит/сек
Каналы : 6 каналов
Расположение каналов : Front: L C R, Side: L R, LFE
Частота : 48,0 КГц
Битовая глубина : 16 бит
Метод сжатия : С потерями
Размер потока : 80,3 Мбайт (8%)

Меню
Свернуть

"Скриншоты"
Изображение
Изображение
Изображение
Изображение
Изображение
Изображение
Изображение
Изображение
Свернуть

Раздача группы:
Изображение
Не в сети
Профиль  
 Добавлено: 2012-12-08 16:37 (спустя 1 день 8 часов)
Стаж: 8 лет 8 месяцев
Сообщений: 173
Лайков: 17
Чем отличается от первых трех частей? Тем, что их я уже пересматривал и еще буду, а вот этот фильм нет. А так боевичок, чтобы скоротать вечер, пойдет.
Не в сети
Профиль  
Начать новую темуОтветить на тему  [ Сообщений: 2 ] 
Вы не можете начинать темы
Вы не можете отвечать на сообщения
Вы не можете редактировать свои сообщения
Вы не можете удалять свои сообщения