Правила форума

  • В этом разделе создание новых тем Запрещено.
  • Для создания новых тем пользуйтесь Корневым разделом DVD и HD фильмы.
Начать новую темуОтветить на тему  [ 1 сообщение ] 
Торрент файл
Размер: 4.36 GB • Зарегистрирован: 4 года 8 месяцев • Статус: Проверено
Скачан: 33 раза • Желающих скачать: 0 • Поблагодарили: 7 раз
 Раздают: 0  |  0 KB/s  ]   Качают: 0  |  0 KB/s  ] 
 Полного источника не было 3 года 2 месяца 
Сообщения
 Добавлено: 2012-03-31 00:09
DVD Release Group
Аватара пользователя
Стаж: 7 лет 1 месяц
Сообщений: 3569
Спасибок: 247717
Лайков: 1020
Фанатки на завтрак не остаются

Groupies bleiben nicht zum Fruhstuck


Изображение


Год выпуска: 2010
Страна: Германия, SamFilm Produktion
Жанр: Мелодрама, комедия
Продолжительность: 01:39:56
Перевод: Профессиональный (многоголосый, закадровый)
Cубтитры: Русские
Режиссер: Марк Ротемунд
В ролях: Анна Фишер, Костя Ульманн, Инка Фридрих, Эмбер Бонгард, Нина Гуммих, Роман Книжка, Бен Браун, Джозеф Маттес, Michael Keseroglu, Франциска Вульф
Описание: После года, проведенного в США в качестве студентки по обмену, 17-летняя Лила возвращается домой в Германию, где влюбляется в привлекательного молодого человека по имени Криц. То чего Лила изначально не знала: за год ее отсутствия в Германии появилась молодежная супер-популярная группа, в одночасье добившаяся огромного успеха среди подростков. Слава группы еще не дошла до США, но в Германии они стали мегазвездами, а солистом группы как раз и является Криц. Когда Лила узнает об этом, трудности неизбежны. К тому же, Криц разделяет чувства Лилы к превеликому ужасу своего менеджера: по контракту Крицу запрещено иметь подружек, так это испортит его имидж одинокого красавчика. Есть ли шанс у любви Лилы и Крица?
Кинопоиск: 7.36 (982)
IMDb: 6.5 (382)
Дополнительно:
Исходник: DVD9 (5.94 GB) [лицензия, PAL 16:9].
Убран: Russian (Dolby AC3, 2 ch), заставки и предупреждение.
Сжатие фильма 26 % сжатия (без учета ручного перераспределения битрейта, за счет большего сжатия конечных титров).
Работоспособность проверена на софтовом плеере Windows Media и бытовом LG.
Качество: DVD5 (сжатый)
Формат: DVD Video
Видео кодек: MPEG2
Аудио кодек: AC3
Видео: 720x576 25.00fps 5548Kbps
Аудио:
Audio Rus: 48kHz 6ch 384Kbps
Audio Deu: 48kHz 6ch 384Kbps
"MediaInfo"

Формат : MPEG-PS
Размер файла : 1024 Мбайт
Продолжительность : 22 м.
Режим общего битрейта : Переменный
Общий поток : 6444 Кбит/сек
Библиотека кодирования : encoded by TMPGEnc (ver. 2.524.63.181)

Видео
Идентификатор : 224 (0xE0)
Формат : MPEG Video
Версия формата : Version 2
Профиль формата : Main@Main
Параметр BVOP формата : Да
Параметр матрицы формата : Выборочная
Продолжительность : 22 м.
Вид битрейта : Переменный
Битрейт : 5548 Кбит/сек
Ширина : 720 пикселей
Высота : 576 пикселей
Соотношение сторон : 16:9
Частота кадров : 25,000 кадров/сек
Стандарт вещания : PAL
Цветовое пространство : YUV
Субдискретизация насыщенности : 4:2:0
Битовая глубина : 8 бит
Метод сжатия : С потерями
Бит/(Пиксели*Кадры) : 0.535
Размер потока : 882 Мбайт (86%)
Библиотека кодирования : TMPGEnc 2.524.63.181

Аудио #1
Идентификатор : 189 (0xBD)-128 (0x80)
Формат : AC-3
Формат/Информация : Audio Coding 3
Расширение режима : CM (complete main)
Режим смешивания : DVD-Video
Продолжительность : 22 м.
Вид битрейта : Постоянный
Битрейт : 384 Кбит/сек
Каналы : 6 каналов
Расположение каналов : Front: L C R, Side: L R, LFE
Частота : 48,0 КГц
Битовая глубина : 16 бит
Метод сжатия : С потерями
Задержка видео : 6 мс.
Размер потока : 61,0 Мбайт (6%)

Аудио #2
Идентификатор : 189 (0xBD)-130 (0x82)
Формат : AC-3
Формат/Информация : Audio Coding 3
Расширение режима : CM (complete main)
Режим смешивания : DVD-Video
Продолжительность : 22 м.
Вид битрейта : Постоянный
Битрейт : 384 Кбит/сек
Каналы : 6 каналов
Расположение каналов : Front: L C R, Side: L R, LFE
Частота : 48,0 КГц
Битовая глубина : 16 бит
Метод сжатия : С потерями
Задержка видео : 6 мс.
Размер потока : 61,0 Мбайт (6%)

Меню
Свернуть

"Скриншоты"

Изображение
Изображение
Изображение
Изображение
Изображение
Изображение
Изображение
Изображение
Изображение
Свернуть

Раздача группы:
Изображение
Не в сети
Профиль  
Начать новую темуОтветить на тему  [ 1 сообщение ] 
Вы не можете начинать темы
Вы не можете отвечать на сообщения
Вы не можете редактировать свои сообщения
Вы не можете удалять свои сообщения