Правила форума

  • В этом разделе создание новых тем Запрещено.
  • Для создания новых тем пользуйтесь Корневым разделом DVD и HD фильмы.
Начать новую темуОтветить на тему  [ Сообщений: 4 ] 
Торрент файл
Размер: 5.19 GB • Зарегистрирован: 4 года 7 месяцев • Статус: Проверено
Скачан: 171 раз • Желающих скачать: 0 • Поблагодарили: 14 раз
 Раздают: 0  |  0 KB/s  ]   Качают: 0  |  0 KB/s  ] 
 Полного источника не было 2 месяца 18 дней 
Сообщения
 Добавлено: 2012-04-18 10:42
Аватара пользователя
Стаж: 5 лет 6 месяцев
Возраст: 30
Сообщений: 353
Спасибок: 7455
Фантом / The Darkest Hour

Изображение


Год выпуска: 2011
Страна: США, Россия (Базелевс Продакшн, New Regency Pictures, Regency Enterprises, Summit Entertainment, The Jacobson Company)
Слоган: «Survive The Holidays»
Жанр: фантастика, триллер
Продолжительность: 01:25:37
Перевод: Оригинальная звуковая дорожка + Оригинальная звуковая дорожка + Профессиональный (дубляж)
Дублеры: Евгений Вальц, Татьяна Шитова, Александр Гаврилин, Пётр Иващенко, Борис Быстров + Профессиональный (дубляж)
Субтитры: Русские, английские, французике, нидерландские, эстонские, латышские, литовские, украинские

Режиссёр: Крис Горак / Chris Gorak
Сценарист: Джон Спэйтс, Лесли Боэм, М.Т. Ахерн
Продюсер: Тимур Бекмамбетов, Том Джейкобсон, Стивен А. Маринаццио II
Оператор: Скотт Кеван
Композитор: Тайлер Бейтс
В ролях: Эмиль Хирш, Оливия Тирлби, Макс Мингелла, Рэйчел Тейлор, Йоэль Чиннаман, Вероника Вернадская, Дато Бахтадзе, Гоша Куценко, Николай Ефремов, Артур Смольянинов

Описание: Фильм расскажет про четырех американских туристов, оказавшихся в Москве в момент нападения на нее инопланетян.

Доп.информация: Удаленные и расширенные сцены
Рейтинг MPAA: Рейтинг PG-13 (Дети до 13 лет допускаются на фильм только с родителями)
Мировая премьера: 22 декабря 2011
Премьера в России: 22 декабря 2011, «Двадцатый Век Фокс СНГ» 3D
Бюджет: $30 000 000
Кассовые сборы: $64 626 786

Изображение Изображение Изображение

Качество: DVD9 R5
Формат: DVD Video
Видео кодек: MPEG2
Аудио кодек: AC3 (Dolby Digital)
Видео: PAL 16:9 (720x576(0.588)) MPEG Video, 25,000 кадр/сек, 6097 Кбит/сек
Аудио #1: English (Dolby AC3, 6 ch) 448 Кбит/сек, 48,0 КГц [Оригинальная звуковая дорожка]
Аудио #2: Francais (Dolby AC3, 6 ch) 384 Кбит/сек, 48,0 КГц [Оригинальная звуковая дорожка]
Аудио #3: Russian (Dolby AC3, 6 ch) 384 Кбит/сек, 48,0 КГц [Профессиональный (дубляж)]
Аудио #4: Ukrainian (Dolby AC3, 6 ch) 384 Кбит/сек, 48,0 КГц [Профессиональный (дубляж)]
Субтитры: Русские, английские, французике, нидерландские, эстонские, латышские, литовские, украинские

"DVDInfo"
Title:
Size: 5.19 Gb ( 5 437 044 KBytes ) - DVD-9
Enabled regions: 1, 2, 3, 4, 5, 6, 7, 8

VTS_01 :
Play Length: 01:25:37
Video: PAL 16:9 (720x576) VBR, Auto Letterboxed
Audio:
English (Dolby AC3, 6 ch)
Francais (Dolby AC3, 6 ch)
Russian (Dolby AC3, 6 ch)
Ukrainian (Dolby AC3, 6 ch)
Subtitles:
English
Francais
Nederlands
Estonian
Latvian
Lithuanian
Russian
Ukrainian
English
Francais
Russian
Ukrainian

VTS_02 :
Play Length: 00:04:24+00:00:57+00:00:28+00:00:48+00:00:47+00:01:36
Video: PAL 16:9 (720x576) VBR, Auto Letterboxed
Audio:
English (Dolby AC3, 2 ch)
Subtitles:
Francais
Nederlands
Russian

VTS_03 :
Play Length:
Video: PAL 16:9 (720x576) VBR, Auto Letterboxed

VTS_04 :
Play Length:
Video: PAL 16:9 (720x576) VBR, Auto Letterboxed

VTS_05 :
Play Length:
Video: PAL 16:9 (720x576) VBR, Auto Letterboxed

VTS_06 :
Play Length:
Video: PAL 16:9 (720x576) VBR, Auto Letterboxed

VTS_07 :
Play Length: 00:00:24
Video: PAL 16:9 (720x576) VBR, Auto Letterboxed
Audio:
Not specified (Dolby AC3, 6 ch)

VTS_08 :
Play Length:
Video: PAL 16:9 (720x576) VBR, Auto Letterboxed

VTS_09 :
Play Length:
Video: PAL 16:9 (720x576) VBR, Auto Letterboxed
Audio:
Not specified (Dolby AC3, 2 ch)

VTS_10 :
Play Length: 00:00:05+00:00:10
Video: PAL 16:9 (720x576) VBR, Auto Letterboxed
Audio:
Not specified (Dolby AC3, 2 ch)

VTS_11 :
Play Length: 00:00:56
Video: PAL 16:9 (720x576) VBR, Auto Pan&Scan
Audio:
Not specified (Dolby AC3, 2 ch)

VTS_12 :
Play Length: 00:00:38+00:01:01
Video: PAL 16:9 (720x576) VBR, Auto Letterboxed
Audio:
Not specified (Dolby AC3, 2 ch)
Subtitles:
Not specified

VTS_13 :
Play Length: 00:00:07
Video: PAL 16:9 (720x576) VBR, Auto Pan&Scan
Audio:
Not specified (Dolby AC3, 2 ch)

Свернуть

"MediaInfo"
Общее
Полное имя : J:\Новинки 2012\Fantom.2011.DVD9\VIDEO_TS\VTS_01_2.VOB
Формат : MPEG-PS
Размер файла : 1024 Мбайт
Продолжительность : 18 м.
Режим общего битрейта : Переменный
Общий поток : 7854 Кбит/сек

Видео
Идентификатор : 224 (0xE0)
Формат : MPEG Video
Версия формата : Version 2
Профиль формата : Main@Main
Параметр BVOP формата : Да
Параметр матрицы формата : Выборочная
Продолжительность : 18 м.
Вид битрейта : Переменный
Битрейт : 6097 Кбит/сек
Максимальный битрейт : 9800 Кбит/сек
Ширина : 720 пикселей
Высота : 576 пикселей
Соотношение сторон : 16:9
Частота кадров : 25,000 кадров/сек
Стандарт вещания : PAL
Цветовое пространство : YUV
Субдискретизация насыщенности : 4:2:0
Битовая глубина : 8 бит
Тип развёртки : Прогрессивная
Порядок развёртки : Верхнее поле первое
Метод сжатия : С потерями
Бит/(Пиксели*Кадры) : 0.588
Размер потока : 795 Мбайт (78%)

Аудио #1
Идентификатор : 189 (0xBD)-128 (0x80)
Формат : AC-3
Формат/Информация : Audio Coding 3
Расширение режима : CM (complete main)
Режим смешивания : DVD-Video
Продолжительность : 18 м.
Вид битрейта : Постоянный
Битрейт : 448 Кбит/сек
Каналы : 6 каналов
Расположение каналов : Front: L C R, Side: L R, LFE
Частота : 48,0 КГц
Битовая глубина : 16 бит
Метод сжатия : С потерями
Задержка видео : -608 мс.
Размер потока : 58,4 Мбайт (6%)

Аудио #2
Идентификатор : 189 (0xBD)-129 (0x81)
Формат : AC-3
Формат/Информация : Audio Coding 3
Расширение режима : CM (complete main)
Режим смешивания : DVD-Video
Продолжительность : 18 м.
Вид битрейта : Постоянный
Битрейт : 384 Кбит/сек
Каналы : 6 каналов
Расположение каналов : Front: L C R, Side: L R, LFE
Частота : 48,0 КГц
Битовая глубина : 16 бит
Метод сжатия : С потерями
Задержка видео : -576 мс.
Размер потока : 50,1 Мбайт (5%)

Аудио #3
Идентификатор : 189 (0xBD)-130 (0x82)
Формат : AC-3
Формат/Информация : Audio Coding 3
Расширение режима : CM (complete main)
Режим смешивания : DVD-Video
Продолжительность : 18 м.
Вид битрейта : Постоянный
Битрейт : 384 Кбит/сек
Каналы : 6 каналов
Расположение каналов : Front: L C R, Side: L R, LFE
Частота : 48,0 КГц
Битовая глубина : 16 бит
Метод сжатия : С потерями
Задержка видео : -576 мс.
Размер потока : 50,1 Мбайт (5%)

Аудио #4
Идентификатор : 189 (0xBD)-131 (0x83)
Формат : AC-3
Формат/Информация : Audio Coding 3
Расширение режима : CM (complete main)
Режим смешивания : DVD-Video
Продолжительность : 18 м.
Вид битрейта : Постоянный
Битрейт : 384 Кбит/сек
Каналы : 6 каналов
Расположение каналов : Front: L C R, Side: L R, LFE
Частота : 48,0 КГц
Битовая глубина : 16 бит
Метод сжатия : С потерями
Задержка видео : -576 мс.
Размер потока : 50,1 Мбайт (5%)

Текст #1
Идентификатор : 189 (0xBD)-32 (0x20)
Формат : RLE
Формат/Информация : Run-length encoding
Режим смешивания : DVD-Video
Задержка видео : 1 с. 840 мс.

Текст #2
Идентификатор : 189 (0xBD)-35 (0x23)
Формат : RLE
Формат/Информация : Run-length encoding
Режим смешивания : DVD-Video
Задержка видео : 1 с. 840 мс.

Текст #3
Идентификатор : 189 (0xBD)-36 (0x24)
Формат : RLE
Формат/Информация : Run-length encoding
Режим смешивания : DVD-Video
Задержка видео : 1 с. 840 мс.

Текст #4
Идентификатор : 189 (0xBD)-37 (0x25)
Формат : RLE
Формат/Информация : Run-length encoding
Режим смешивания : DVD-Video
Задержка видео : 1 с. 840 мс.

Текст #5
Идентификатор : 189 (0xBD)-38 (0x26)
Формат : RLE
Формат/Информация : Run-length encoding
Режим смешивания : DVD-Video
Задержка видео : 1 с. 840 мс.

Текст #6
Идентификатор : 189 (0xBD)-39 (0x27)
Формат : RLE
Формат/Информация : Run-length encoding
Режим смешивания : DVD-Video
Задержка видео : 1 с. 840 мс.
Свернуть

Скриншоты
Скриншоты меню
Изображение
Изображение
Изображение
Изображение
Свернуть
Изображение
Изображение
Изображение
Изображение
Изображение
Изображение
Изображение
Изображение
Изображение
Изображение
Свернуть


ИзображениеИзображение
Не в сети
Профиль  
 Добавлено: 2012-04-26 14:51 (спустя 8 дней)
Аватара пользователя
Стаж: 7 лет 2 месяца
Возраст: 23
Сообщений: 7
Фильм - ГХАВНО!
Впустую потраченные 1.5 часа моей бесполезной жизни.
Не в сети
Профиль  
 Добавлено: 2012-04-27 13:45 (спустя 22 часа)
Стаж: 8 лет 3 месяца
Сообщений: 15
фильм классный всем советую,а тем кто привык к фантастике американцев не смотрите ни кто не заставляет!
Не в сети
Профиль  
 Добавлено: 2012-04-29 11:31 (спустя 1 день 21 час)
Стаж: 7 лет 6 месяцев
Сообщений: 6
Гайно
Не в сети
Профиль  
Начать новую темуОтветить на тему  [ Сообщений: 4 ] 
Вы не можете начинать темы
Вы не можете отвечать на сообщения
Вы не можете редактировать свои сообщения
Вы не можете удалять свои сообщения