Правила форума

  • В этом разделе создание новых тем Запрещено.
  • Для создания новых тем пользуйтесь Корневым разделом DVD и HD фильмы.
Начать новую темуОтветить на тему  [ Сообщений: 2 ] 
Торрент файл
Размер: 4.34 GB • Зарегистрирован: 4 года 7 месяцев • Статус: Проверено
Скачан: 215 раз • Желающих скачать: 0 • Поблагодарили: 36 раз
 Раздают: 0  |  0 KB/s  ]   Качают: 0  |  0 KB/s  ] 
 Полного источника не было 1 год 8 месяцев 
Сообщения
 Добавлено: 2012-04-18 12:10
Руководитель релиз-группы
Аватара пользователя
Стаж: 7 лет 4 месяца
Возраст: 31
Сообщений: 3407
Спасибок: 46728
Лайков: 5
Изображение

Фантом
The Darkest Hour


Год выпуска: 2011
Страна: США, Россия
Слоган: «Survive The Holidays»
Жанр: фантастика, триллер
Продолжительность: 01:25:37
Перевод: Профессиональный (полное дублирование)
Режиссер: Крис Горак
Сценарий: Джон Спэйтс, Лесли Боэм, М.Т. Ахерн
Продюсер: Тимур Бекмамбетов, Том Джейкобсон, Стивен А. Маринаццио II
Оператор: Скотт Кеван
Композитор: Тайлер Бейтс
В ролях: Эмиль Хирш, Оливия Тирлби, Макс Мингелла, Рэйчел Тейлор, Йоэль Чиннаман, Вероника Вернадская, Дато Бахтадзе, Гоша Куценко, Николай Ефремов, Артур Смольянинов
Бюджет: $30 000 000
Сборы в мире: $64 626 786
Описание: Фильм расскажет про четырех американских туристов, оказавшихся в Москве в момент нападения на нее инопланетян.
Изображение
MPAA: Изображение
Релиз: Изображение Раздача группы: Изображение
Качество: DVD5 (сжатый)
Формат: DVD Video
Видео: MPEG2; PAL 16:9 (720x576)
Аудио #1: Dolby AC3, 6 ch, 384 Kbps Russian
Аудио #2: Dolby AC3, 6 ch, 448 Kbps English
Субтитры: русские, английские, французике, нидерландские, эстонские, латышские, литовские, украинские
Дополнительная информация :
Исходник : DVD9 (5.19 Гб) [лицензия, PAL 16:9]
Убрано : допы, реклама, Francais / Ukrainian (Dolby AC3, 6 ch)
Сжатие фильма : нет
Изображение
использовались программы
    DVDRemakePro
    Photoshop
    MuxMan
    Работоспособность проверена на софтовом плеере Windows Media и бытовом LG
Свернуть
DVDInfo
    Title: Fantom_2011_DVD5.[R.G.Daredevil]
    Size: 4.34 Gb ( 4 546 238,00 KBytes ) - DVD-5
    Enabled regions: 1, 2, 3, 4, 5, 6, 7, 8

    VTS_01 :
    Play Length: 01:25:37
    Video: PAL 16:9 (720x576) VBR, Auto Letterboxed
    Audio:
    English (Dolby AC3, 6 ch)
    Francais (Dolby AC3, 6 ch)
    Subtitles:
    English
    Francais
    Nederlands
    Estonian
    Latvian
    Lithuanian
    Russian
    Ukrainian
    English
    Francais
    Russian
    Ukrainian

    VTS_02 :
    Play Length: 00:00:03+00:00:01+00:00:01+00:00:01+00:00:01+00:00:01
    Video: PAL 16:9 (720x576) VBR, Auto Letterboxed
    Audio:
    English (Dolby AC3, 2 ch)
    Subtitles:
    Francais
    Nederlands
    Russian

    VTS_03 :
    Play Length: 00:00:00
    Video: PAL 16:9 (720x576) VBR, Auto Letterboxed

    VTS_04 :
    Play Length: 00:00:00
    Video: PAL 16:9 (720x576) VBR, Auto Letterboxed

    VTS_05 :
    Play Length: 00:00:00
    Video: PAL 16:9 (720x576) VBR, Auto Letterboxed

    VTS_06 :
    Play Length: 00:00:00
    Video: PAL 16:9 (720x576) VBR, Auto Letterboxed

    VTS_07 :
    Play Length: 00:00:24
    Video: PAL 16:9 (720x576) VBR, Auto Letterboxed
    Audio:
    Not specified (Dolby AC3, 6 ch)

    VTS_08 :
    Play Length: 00:00:00
    Video: PAL 16:9 (720x576) VBR, Auto Letterboxed

    VTS_09 :
    Play Length: 00:00:00
    Video: PAL 16:9 (720x576) VBR, Auto Letterboxed
    Audio:
    Not specified (Dolby AC3, 2 ch)

    VTS_10 :
    Play Length: 00:00:05+00:00:10+00:00:05
    Video: PAL 16:9 (720x576) VBR, Auto Letterboxed
    Audio:
    Not specified (Dolby AC3, 2 ch)

    VTS_11 :
    Play Length: 00:00:56
    Video: PAL 16:9 (720x576) VBR, Auto Pan&Scan
    Audio:
    Not specified (Dolby AC3, 2 ch)

    VTS_12 :
    Play Length: 00:00:00+00:00:00+{00:00:00}+{00:00:00}+{00:00:00}+{00:00:00}+{00:00:00}+00:00:00+00:00:00+{00:00:00}+{00:00:00}+00:00:00
    Video: PAL 16:9 (720x576) VBR, Auto Letterboxed
    Audio:
    Not specified (Dolby AC3, 2 ch)
    Subtitles:
    Not specified

    VTS_13 :
    Play Length: 00:00:00+00:00:07+{00:00:00}+00:00:07+{00:00:00}+{00:00:00}+{00:00:00}+{00:00:00}+{00:00:00}
    Video: PAL 16:9 (720x576) VBR, Auto Pan&Scan
    Audio:
    Not specified (Dolby AC3, 2 ch)
Свернуть
mediainfo
    Формат : MPEG-PS
    Размер файла : 1024 Мбайт
    Продолжительность : 19 м.
    Режим общего битрейта : Переменный
    Общий поток : 7166 Кбит/сек
    Библиотека кодирования : encoded by TMPGEnc (ver. 2.524.63.181)

    Видео
    Идентификатор : 224 (0xE0)
    Формат : MPEG Video
    Версия формата : Version 2
    Профиль формата : Main@Main
    Параметр BVOP формата : Да
    Параметр матрицы формата : Выборочная
    Продолжительность : 19 м.
    Вид битрейта : Переменный
    Битрейт : 6191 Кбит/сек
    Ширина : 720 пикселей
    Высота : 576 пикселей
    Соотношение сторон : 16:9
    Частота кадров : 25,000 кадров/сек
    Стандарт вещания : PAL
    Цветовое пространство : YUV
    Субдискретизация насыщенности : 4:2:0
    Битовая глубина : 8 бит
    Тип развёртки : Прогрессивная
    Метод сжатия : С потерями
    Бит/(Пиксели*Кадры) : 0.597
    Размер потока : 885 Мбайт (86%)
    Библиотека кодирования : TMPGEnc 2.524.63.181

    Аудио #1
    Идентификатор : 189 (0xBD)-128 (0x80)
    Формат : AC-3
    Формат/Информация : Audio Coding 3
    Расширение режима : CM (complete main)
    Режим смешивания : DVD-Video
    Продолжительность : 19 м.
    Вид битрейта : Постоянный
    Битрейт : 448 Кбит/сек
    Каналы : 6 каналов
    Расположение каналов : Front: L C R, Side: L R, LFE
    Частота : 48,0 КГц
    Битовая глубина : 16 бит
    Метод сжатия : С потерями
    Задержка видео : 6 мс.
    Размер потока : 64,0 Мбайт (6%)

    Аудио #2
    Идентификатор : 189 (0xBD)-130 (0x82)
    Формат : AC-3
    Формат/Информация : Audio Coding 3
    Расширение режима : CM (complete main)
    Режим смешивания : DVD-Video
    Продолжительность : 19 м.
    Вид битрейта : Постоянный
    Битрейт : 384 Кбит/сек
    Каналы : 6 каналов
    Расположение каналов : Front: L C R, Side: L R, LFE
    Частота : 48,0 КГц
    Битовая глубина : 16 бит
    Метод сжатия : С потерями
    Задержка видео : 6 мс.
    Размер потока : 54,9 Мбайт (5%)

    Текст #1
    Идентификатор : 189 (0xBD)-32 (0x20)
    Формат : RLE
    Формат/Информация : Run-length encoding
    Режим смешивания : DVD-Video

    Текст #2
    Идентификатор : 189 (0xBD)-33 (0x21)
    Формат : RLE
    Формат/Информация : Run-length encoding
    Режим смешивания : DVD-Video

    Текст #3
    Идентификатор : 189 (0xBD)-34 (0x22)
    Формат : RLE
    Формат/Информация : Run-length encoding
    Режим смешивания : DVD-Video

    Текст #4
    Идентификатор : 189 (0xBD)-35 (0x23)
    Формат : RLE
    Формат/Информация : Run-length encoding
    Режим смешивания : DVD-Video

    Текст #5
    Идентификатор : 189 (0xBD)-36 (0x24)
    Формат : RLE
    Формат/Информация : Run-length encoding
    Режим смешивания : DVD-Video

    Текст #6
    Идентификатор : 189 (0xBD)-37 (0x25)
    Формат : RLE
    Формат/Информация : Run-length encoding
    Режим смешивания : DVD-Video

    Текст #7
    Идентификатор : 189 (0xBD)-38 (0x26)
    Формат : RLE
    Формат/Информация : Run-length encoding
    Режим смешивания : DVD-Video

    Текст #8
    Идентификатор : 189 (0xBD)-39 (0x27)
    Формат : RLE
    Формат/Информация : Run-length encoding
    Режим смешивания : DVD-Video

    Меню
Свернуть
Скриншоты

меню
Изображение
Изображение
Изображение
Свернуть
Изображение
Изображение
Изображение
Изображение
Изображение
Свернуть
Не в сети
Профиль  
 Добавлено: 2012-04-18 22:51 (спустя 10 часов)
Аватара пользователя
Стаж: 6 лет 11 месяцев
Сообщений: 167
ребята рейтинг !!!!! какой на хер фантом .. говно очередное !!!!
Не в сети
Профиль  
Начать новую темуОтветить на тему  [ Сообщений: 2 ] 
Вы не можете начинать темы
Вы не можете отвечать на сообщения
Вы не можете редактировать свои сообщения
Вы не можете удалять свои сообщения