Правила форума

  • В этом разделе создание новых тем Запрещено.
  • Для создания новых тем пользуйтесь Корневым разделом DVD и HD фильмы.
Начать новую темуОтветить на тему  [ Сообщений: 4 ] 
Торрент файл
Размер: 4.35 GB • Зарегистрирован: 4 года 8 месяцев • Статус: Проверено
Скачан: 68 раз • Желающих скачать: 0 • Поблагодарили: 12 раз
 Раздают: 0  |  0 KB/s  ]   Качают: 0  |  0 KB/s  ] 
 Полного источника не было 3 года 2 месяца 
Сообщения
 Добавлено: 2012-03-27 15:10
Руководитель релиз-группы
Аватара пользователя
Стаж: 7 лет 5 месяцев
Возраст: 31
Сообщений: 3406
Спасибок: 46729
Лайков: 5
Изображение

Фауст
Faust


Год выпуска: 2011
Страна: США, Россия, Германия, Франция, Япония, Великобритания, Италия
Жанр: фэнтези, драма
Продолжительность: 02:13:40
Перевод: Профессиональный (одноголосый) (Александр Сокуров) [Лицензия]
Режиссер: Александр Сокуров
Сценарий: Юрий Арабов, Иоганн Вольфганг фон Гёте
Продюсер: Андрей Сигле
Оператор: Брюно Дельбоннель
Композитор: Андрей Сигле
В ролях: Ханна Шигулла, Максим Мехмет, Антуан Моно мл., Георг Фридрих, Изольда Дюшаук, Йоханес Цайлер, Флориан Брюкнер, Ева-Мария Курц, Стефан Вебер, Антон Адасинский
Бюджет: $14 400 000
Описание: Сюжетной основой является первая часть поэтической драмы Гете, где повествование, в основном, строится на любовной линии Фауст-Маргарита.
Изображение
Релиз: Изображение Раздача группы: Изображение
Качество: DVD5 (сжатый)
Формат: DVD Video
Видео: MPEG2; PAL 16:9 (720x576)
Аудио: Dolby AC3, 2 ch, 224 Kbps Russian
Субтитры: русские, английские
Дополнительная информация :
Исходник : DVD9 (6.59 Гб) [лицензия, PAL 16:9]
Убрано : анонсы, реклама, заставки, предупреждения, Deutsch (Dolby AC3, 6 ch)
Сжатие фильма : 23.3 % сжатия (без учета ручного перераспределения битрейта, за счет большего сжатия конечных титров)
использовались программы
    DVDRemakePro
    Photoshop
    MuxMan
    Rebuilder и CCE (Cinema Craft Encoder), 5 проходов
    Работоспособность проверена на софтовом плеере Windows Media и бытовом LG
Свернуть
DVDInfo
    Title: Faust_2011_DVD5.[R.G.Daredevil]
    Size: 4.35 Gb ( 4 564 294,00 KBytes ) - DVD-5
    Enabled regions: 1, 2, 3, 4, 5, 6, 7, 8

    VTS_01 :
    Play Length: 00:00:00
    Video: PAL 4:3 (720x576) VBR
    Audio:
    Not specified (Dolby AC3, 2 ch)

    VTS_02 :
    Play Length: 00:00:00
    Video: PAL 16:9 (720x576) VBR, Auto Letterboxed
    Audio:
    Not specified (Dolby AC3, 2 ch)

    VTS_03 :
    Play Length: 00:00:00
    Video: PAL 16:9 (720x576) VBR, Auto Letterboxed
    Audio:
    Not specified (Dolby AC3, 2 ch)

    VTS_04 :
    Play Length: 00:00:00
    Video: PAL 16:9 (720x576) VBR, Auto Letterboxed
    Audio:
    Not specified (Dolby AC3, 2 ch)

    VTS_05 :
    Play Length: 00:00:00
    Video: PAL 16:9 (720x576) VBR, Auto Letterboxed
    Audio:
    Not specified (Dolby AC3, 2 ch)

    VTS_06 :
    Play Length: 00:00:00
    Video: PAL 16:9 (720x576) VBR, Auto Letterboxed
    Audio:
    Not specified (Dolby AC3, 2 ch)

    VTS_07 :
    Play Length: 00:00:00
    Video: PAL 16:9 (720x576) VBR, Auto Letterboxed
    Audio:
    Not specified (Dolby AC3, 2 ch)

    VTS_08 :
    Play Length: 00:00:00
    Video: PAL 16:9 (720x576) VBR, Auto Letterboxed
    Audio:
    Not specified (Dolby AC3, 2 ch)

    VTS_09 :
    Play Length: 00:00:00
    Video: PAL 16:9 (720x576) VBR, Auto Letterboxed
    Audio:
    Not specified (Dolby AC3, 2 ch)

    VTS_10 :
    Play Length: 02:13:40
    Video: PAL 16:9 (720x576) VBR, Auto Letterboxed
    Audio:
    Russian (Dolby AC3, 2 ch)
    Subtitles:
    Russian
    English
Свернуть
mediainfo
    Формат : MPEG-PS
    Размер файла : 1024 Мбайт
    Продолжительность : 31 м.
    Режим общего битрейта : Переменный
    Общий поток : 4579 Кбит/сек

    Видео
    Идентификатор : 224 (0xE0)
    Формат : MPEG Video
    Версия формата : Version 2
    Профиль формата : Main@Main
    Параметр BVOP формата : Да
    Параметр матрицы формата : Выборочная
    Продолжительность : 31 м.
    Вид битрейта : Переменный
    Битрейт : 4264 Кбит/сек
    Максимальный битрейт : 9000 Кбит/сек
    Ширина : 720 пикселей
    Высота : 576 пикселей
    Соотношение сторон : 16:9
    Частота кадров : 25,000 кадров/сек
    Стандарт вещания : PAL
    Цветовое пространство : YUV
    Субдискретизация насыщенности : 4:2:0
    Битовая глубина : 8 бит
    Тип развёртки : Прогрессивная
    Порядок развёртки : Нижнее поле первое
    Метод сжатия : С потерями
    Бит/(Пиксели*Кадры) : 0.411
    Размер потока : 954 Мбайт (93%)

    Аудио
    Идентификатор : 189 (0xBD)-128 (0x80)
    Формат : AC-3
    Формат/Информация : Audio Coding 3
    Расширение режима : CM (complete main)
    Режим смешивания : DVD-Video
    Продолжительность : 31 м.
    Вид битрейта : Постоянный
    Битрейт : 224 Кбит/сек
    Каналы : 2 канала
    Расположение каналов : Front: L R
    Частота : 48,0 КГц
    Битовая глубина : 16 бит
    Метод сжатия : С потерями
    Размер потока : 50,1 Мбайт (5%)

    Текст #1
    Идентификатор : 189 (0xBD)-32 (0x20)
    Формат : RLE
    Формат/Информация : Run-length encoding
    Режим смешивания : DVD-Video
    Продолжительность : 31 м.
    Задержка видео : 1 с. 0 мс.

    Текст #2
    Идентификатор : 189 (0xBD)-33 (0x21)
    Формат : RLE
    Формат/Информация : Run-length encoding
    Режим смешивания : DVD-Video
    Продолжительность : 31 м.
    Задержка видео : 1 с. 0 мс.

    Текст #3
    Идентификатор : 189 (0xBD)-34 (0x22)
    Формат : RLE
    Формат/Информация : Run-length encoding
    Режим смешивания : DVD-Video
    Продолжительность : 31 м.
    Задержка видео : 1 с. 840 мс.

    Текст #4
    Идентификатор : 189 (0xBD)-35 (0x23)
    Формат : RLE
    Формат/Информация : Run-length encoding
    Режим смешивания : DVD-Video
    Продолжительность : 31 м.
    Задержка видео : 1 с. 840 мс.

    Меню
Свернуть
Знаете ли Вы, что...
  • «Фауст» является финальным фильмом тетралогии «Молох» — «Телец» — «Солнце» — «Фауст».
Свернуть
Скриншоты

меню
Изображение
Изображение
Изображение
Свернуть
Изображение
Изображение
Изображение
Изображение
Свернуть
Не в сети
Профиль  
 Добавлено: 2012-03-27 21:27 (спустя 6 часов)
Аватара пользователя
Стаж: 7 лет 1 месяц
Сообщений: 60
я так понял - это муть........ :za_da_va_la: :za_da_va_la: :za_da_va_la:
Не в сети
Профиль  
 Добавлено: 2012-03-27 21:36 (спустя 9 минут)
Кинокомментатор
Аватара пользователя
Стаж: 9 лет 1 месяц
Сообщений: 1332
Лайков: 54
сначала отвечу Воваке: я так понял, что ты ничё не понял! это раз) я так понял, что это кино мирового уровня, не для быдла! это два) и я так понял, что тут надо думать! а не ждать, что тебе вольют жижицу в горло! это три!)

ну что сказать!?:) да вот посмотрите, досмотрите и помолчите:) не понял ни чего! ровным счётом:) ппц кино) очень странное очень "на подумать"! даже не знаю что сказать... хммм... рад что посмотрел, потому что много интересного... рад что досмотрел, потому что еле удержался... и смотреть больше не буду!) ибо "ну это слишком!"))
качество картинки почему такое?) задумано так?) хмммм) в общем я не знаю даже) кто не готов к серьёзному нудному кино про нас с вами... лучше посмотрите "такие разные близнецы"!) там думать не придётся;)
_________________
Я ВКонтакте
Не в сети
Профиль  
 Добавлено: 2012-03-29 08:20 (спустя 1 день 10 часов)
Стаж: 7 лет 2 месяца
Сообщений: 27
это что за не понятный поноз,набор слов ,а по делу ноль и еще про быдло пишет как так
Не в сети
Профиль  
Начать новую темуОтветить на тему  [ Сообщений: 4 ] 
Вы не можете начинать темы
Вы не можете отвечать на сообщения
Вы не можете редактировать свои сообщения
Вы не можете удалять свои сообщения