Правила форума

  • В этом разделе создание новых тем Запрещено.
  • Для создания новых тем пользуйтесь Корневым разделом DVD и HD фильмы.
Начать новую темуОтветить на тему  [ Сообщений: 2 ] 
Торрент файл
Размер: 5.03 GB • Зарегистрирован: 4 года 4 месяца • Статус: Проверено
Скачан: 165 раз • Желающих скачать: 0 • Поблагодарили: 21 раз
 Раздают: 0  |  0 KB/s  ]   Качают: 0  |  0 KB/s  ] 
 Полного источника не было 1 год 7 месяцев 
Сообщения
 Добавлено: 2012-07-10 10:05
Аватара пользователя
Стаж: 5 лет 5 месяцев
Возраст: 30
Сообщений: 353
Спасибок: 7455
Гнев Титанов / Wrath of the Titans

Изображение


[h]Год выпуска: 2012
Страна: США (Legendary Pictures, The Zanuck Company, Thunder Road, Warner Bros. Pictures)
Слоган: «Ощути их ярость»
Жанр: фэнтези, боевик, приключения
Продолжительность: 01:35:26
Перевод: Оригинальная звуковая дорожка + Оригинальная звуковая дорожка + Профессиональный (дубляж)
Дублеры: Сергей Бурунов, Алексей Рязанцев, Владимир Зайцев, Даниил Эльдаров, Сергей Смирнов + Профессиональный (дубляж)
Субтитры: Русские, английские, чешские, латышские, литовские, эстонские, хорватские, португальские, сербские, словенские

Режиссёр: Джонатан Либесман / Jonathan Liebesman
Сценарист: Дэн Мазо, Дэвид Джонсон, Беверли Кросс
Продюсер: Бэзил Иваник, Полли Коэн, Кевин Де Ла Ной
Оператор: Бен Дэвис
Композитор: Хавьер Наваррете
В ролях: Сэм Уортингтон, Лиам Нисон, Рэйф Файнс, Эдгар Рамирез, Тоби Кеббелл, Розамунд Пайк, Билл Найи, Дэнни Хьюстон, Джон Белл, Лили Джеймс

Описание: Прошло десять лет после героического поражения Персеем морского чудовища Кракена, теперь он живет спокойной жизнью деревенского рыбака и воспитывает своего 10-летнего сына.
Тем временем, бушует борьба за превосходство между Богами и Титанами. Опасно ослабленные нехваткой человеческой любви и преданности, Боги теряют контроль над заключенными в тюрьму Титанами и их свирепым лидером, Кроносом, отцом правящих братьев Зевса, Аида и Посейдона. Давным-давно триумвират сверг своего сильного отца, отправив его гнить в мрачную пропасть Тартар, темницу, находящуюся в глубоких пределах подземного мира.
Персей не может остаться в стороне, когда Аид вместе с сыном Зевса, Аресом, заключают сделку с Кроносом, чтобы вместе уничтожить Зевса. Сила Титанов становится ещё больше, в то время как Зевс теряет свою мощь и власть, а по Земле раскидывается ад подземного мира.
Вместе с Андромедой, полубогом Агенором, сыном Посейдона и низвергнутым богом Гефестом,- Персей отправляется в опасное и отважное путешествие в подземный мир, чтобы спасти Зевса, свергнуть Титанов и сохранить людской род.

Доп.информация: Удаленные сцены
Рейтинг MPAA: Рейтинг PG-13 (Дети до 13 лет допускаются на фильм только с родителями)
Мировая премьера: 28 марта 2012
Премьера в России: 29 марта 2012, «Каро-Премьер» 3D
Бюджет: $150 000 000
Кассовые сборы: $301 970 083

Изображение Изображение Изображение

Качество: DVD9 R5
Формат: DVD Video
Видео кодек: MPEG2
Аудио кодек: AC3 (Dolby Digital)
Видео: PAL 16:9 (720x576(0.501)) MPEG Video, 25,000 кадр/сек, 5196 Кбит/сек
Аудио #1: English (Dolby AC3, 6 ch) 384 Кбит/сек, 48,0 КГц [Оригинальная звуковая дорожка]
Аудио #2: Czech(Ceske) (Dolby AC3, 6 ch) 384 Кбит/сек, 48,0 КГц [Оригинальная звуковая дорожка]
Аудио #3: Russian (Dolby AC3, 6 ch) 384 Кбит/сек, 48,0 КГц [Профессиональный (дубляж)]
Аудио #4: Ukrainian (Dolby AC3, 6 ch) 384 Кбит/сек, 48,0 КГц [Профессиональный (дубляж)]
Субтитры: Русские, английские, чешские, латышские, литовские, эстонские, хорватские, португальские, сербские, словенские

"DVDInfo"
Title: New Volume
Size: 5.03 Gb ( 5 275 552 KBytes ) - DVD-9
Enabled regions: 1, 2, 3, 4, 5, 6, 7, 8

VTS_01 :
Play Length: 01:35:26+00:10:19+00:04:15+00:04:38+00:01:26
Video: PAL 16:9 (720x576) VBR, Auto Letterboxed
Audio:
English (Dolby AC3, 6 ch)
Czech(Ceske) (Dolby AC3, 6 ch)
Russian (Dolby AC3, 6 ch)
Ukrainian (Dolby AC3, 6 ch)
English (Dolby AC3, 2 ch)
Subtitles:
English
Hrvatski
Czech(Ceske)
Estonian
Latvian
Lithuanian
Portugues
Russian
Serbian
Slovenian
Russian

VTS_02 :
Play Length: 00:00:10+00:00:12
Video: PAL 16:9 (720x576) VBR, Auto Letterboxed
Audio:
Not specified (Dolby AC3, 6 ch)
Subtitles:
Not specified

Menu Video:
PAL 16:9 (720x576) VBR
Auto Pan&Scan
Menu Subtitles:
Not specified
Menu Language Unit :
Root Menu
Свернуть

"MediaInfo"
Общее
Полное имя : J:\Новинки 2012\Gnev.titanov.2012.DVD9\VIDEO_TS\VTS_01_2.VOB
Формат : MPEG-PS
Размер файла : 1024 Мбайт
Продолжительность : 20 м.
Режим общего битрейта : Переменный
Общий поток : 6869 Кбит/сек

Видео
Идентификатор : 224 (0xE0)
Формат : MPEG Video
Версия формата : Version 2
Профиль формата : Main@Main
Параметр BVOP формата : Да
Параметр матрицы формата : Выборочная
Продолжительность : 20 м.
Вид битрейта : Переменный
Битрейт : 5196 Кбит/сек
Максимальный битрейт : 7500 Кбит/сек
Ширина : 720 пикселей
Высота : 576 пикселей
Соотношение сторон : 16:9
Частота кадров : 25,000 кадров/сек
Стандарт вещания : PAL
Цветовое пространство : YUV
Субдискретизация насыщенности : 4:2:0
Битовая глубина : 8 бит
Тип развёртки : Чересстрочная
Порядок развёртки : Верхнее поле первое
Метод сжатия : С потерями
Бит/(Пиксели*Кадры) : 0.501
Размер потока : 774 Мбайт (76%)

Аудио #1
Идентификатор : 189 (0xBD)-128 (0x80)
Формат : AC-3
Формат/Информация : Audio Coding 3
Расширение режима : CM (complete main)
Параметр Endianness формата : Big
Режим смешивания : DVD-Video
Продолжительность : 20 м.
Вид битрейта : Постоянный
Битрейт : 384 Кбит/сек
Каналы : 6 каналов
Расположение каналов : Front: L C R, Side: L R, LFE
Частота : 48,0 КГц
Битовая глубина : 16 бит
Метод сжатия : С потерями
Задержка видео : -424 мс.
Размер потока : 57,2 Мбайт (6%)

Аудио #2
Идентификатор : 189 (0xBD)-129 (0x81)
Формат : AC-3
Формат/Информация : Audio Coding 3
Расширение режима : CM (complete main)
Параметр Endianness формата : Big
Режим смешивания : DVD-Video
Продолжительность : 20 м.
Вид битрейта : Постоянный
Битрейт : 384 Кбит/сек
Каналы : 6 каналов
Расположение каналов : Front: L C R, Side: L R, LFE
Частота : 48,0 КГц
Битовая глубина : 16 бит
Метод сжатия : С потерями
Задержка видео : -424 мс.
Размер потока : 57,2 Мбайт (6%)

Аудио #3
Идентификатор : 189 (0xBD)-130 (0x82)
Формат : AC-3
Формат/Информация : Audio Coding 3
Расширение режима : CM (complete main)
Параметр Endianness формата : Big
Режим смешивания : DVD-Video
Продолжительность : 20 м.
Вид битрейта : Постоянный
Битрейт : 384 Кбит/сек
Каналы : 6 каналов
Расположение каналов : Front: L C R, Side: L R, LFE
Частота : 48,0 КГц
Битовая глубина : 16 бит
Метод сжатия : С потерями
Задержка видео : -424 мс.
Размер потока : 57,2 Мбайт (6%)

Аудио #4
Идентификатор : 189 (0xBD)-131 (0x83)
Формат : AC-3
Формат/Информация : Audio Coding 3
Расширение режима : CM (complete main)
Параметр Endianness формата : Big
Режим смешивания : DVD-Video
Продолжительность : 20 м.
Вид битрейта : Постоянный
Битрейт : 384 Кбит/сек
Каналы : 6 каналов
Расположение каналов : Front: L C R, Side: L R, LFE
Частота : 48,0 КГц
Битовая глубина : 16 бит
Метод сжатия : С потерями
Задержка видео : -424 мс.
Размер потока : 57,2 Мбайт (6%)

Текст #1
Идентификатор : 189 (0xBD)-32 (0x20)
Формат : RLE
Формат/Информация : Run-length encoding
Режим смешивания : DVD-Video
Продолжительность : 20 м.
Задержка видео : 40 мс.

Текст #2
Идентификатор : 189 (0xBD)-33 (0x21)
Формат : RLE
Формат/Информация : Run-length encoding
Режим смешивания : DVD-Video
Продолжительность : 20 м.
Задержка видео : 40 мс.

Текст #3
Идентификатор : 189 (0xBD)-34 (0x22)
Формат : RLE
Формат/Информация : Run-length encoding
Режим смешивания : DVD-Video
Продолжительность : 20 м.
Задержка видео : 40 мс.

Текст #4
Идентификатор : 189 (0xBD)-35 (0x23)
Формат : RLE
Формат/Информация : Run-length encoding
Режим смешивания : DVD-Video
Продолжительность : 20 м.
Задержка видео : 40 мс.

Текст #5
Идентификатор : 189 (0xBD)-36 (0x24)
Формат : RLE
Формат/Информация : Run-length encoding
Режим смешивания : DVD-Video
Продолжительность : 20 м.
Задержка видео : 40 мс.

Текст #6
Идентификатор : 189 (0xBD)-37 (0x25)
Формат : RLE
Формат/Информация : Run-length encoding
Режим смешивания : DVD-Video
Продолжительность : 20 м.
Задержка видео : 40 мс.

Текст #7
Идентификатор : 189 (0xBD)-38 (0x26)
Формат : RLE
Формат/Информация : Run-length encoding
Режим смешивания : DVD-Video
Продолжительность : 20 м.
Задержка видео : 40 мс.

Текст #8
Идентификатор : 189 (0xBD)-39 (0x27)
Формат : RLE
Формат/Информация : Run-length encoding
Режим смешивания : DVD-Video
Продолжительность : 20 м.
Задержка видео : 40 мс.

Текст #9
Идентификатор : 189 (0xBD)-40 (0x28)
Формат : RLE
Формат/Информация : Run-length encoding
Режим смешивания : DVD-Video
Продолжительность : 20 м.
Задержка видео : 40 мс.

Текст #10
Идентификатор : 189 (0xBD)-41 (0x29)
Формат : RLE
Формат/Информация : Run-length encoding
Режим смешивания : DVD-Video
Продолжительность : 20 м.
Задержка видео : 40 мс.

Свернуть

Скриншоты
Скриншоты меню
Изображение
Изображение
Изображение
Изображение
Изображение
Свернуть
Скриншоты фильма
Изображение
Изображение
Изображение
Изображение
Изображение
Изображение
Изображение
Изображение
Изображение
Изображение
Свернуть
Скриншоты доп.материалов
Изображение
Изображение
Изображение
Изображение
Изображение
Изображение
Свернуть
Свернуть

Знаете ли Вы, что...
Съёмки фильма проходили в Лондоне, Южном Уэльсе и на Канарском острове Тенерифе.
На роль Андромеды рассматривались Хэйли Этвелл, Джорджина Хэйг, Джанет Монтгомери, Доминик МакЭллигот, Клеманс Поэзи.
Свернуть

Изображение
Не в сети
Профиль  
 Добавлено: 2012-07-13 12:19 (спустя 3 дня)
Модератор
Аватара пользователя
Стаж: 8 лет 1 месяц
Возраст: 27
Сообщений: 3472
Спасибок: 2464
Лайков: 79
Еле досмотрел :-D
_________________
Изображение
В сети
Профиль  
Начать новую темуОтветить на тему  [ Сообщений: 2 ] 
Вы не можете начинать темы
Вы не можете отвечать на сообщения
Вы не можете редактировать свои сообщения
Вы не можете удалять свои сообщения