Правила форума

  • В этом разделе создание новых тем Запрещено.
  • Для создания новых тем пользуйтесь Корневым разделом DVD и HD фильмы.
Начать новую темуОтветить на тему  [ Сообщений: 3 ] 
Торрент файл
Размер: 4.36 GB • Зарегистрирован: 4 года 4 месяца • Статус: Проверено
Скачан: 392 раза • Желающих скачать: 0 • Поблагодарили: 89 раз
 Раздают: 1  |  0 KB/s  ]   Качают: 0  |  0 KB/s  ] 
Сообщения
 Добавлено: 2012-06-30 21:30
DVD Release Group
Аватара пользователя
Стаж: 7 лет 9 месяцев
Сообщений: 364
Спасибок: 3086
Лайков: 10
Гнев Титанов / Wrath of the Titans

Изображение


Год выпуска: 2012
Страна: США
Слоган: «Ощути их ярость»
Жанр: фэнтези, боевик, приключения
Продолжительность: 01:39:25
Перевод: Профессиональный (дубляж) + Оригинальная звуковая дорожка
Дублеры: Сергей Бурунов, Алексей Рязанцев, Владимир Зайцев, Даниил Эльдаров, Сергей Смирнов, Татьяна Шитова, Леонид Белозорович, Анастасия Нестеренко, Ефим Клиновский
Субтитры: Русские (Евгений Воронин), Английские

Режиссёр: Джонатан Либесман
Сценарист: Дэн Мазо, Дэвид Джонсон, Беверли Кросс
Продюсер: Бэзил Иваник, Полли Коэн, Кевин Де Ла Ной
Оператор: Бен Дэвис
Композитор: Хавьер Наваррете
В ролях: Сэм Уортингтон, Лиам Нисон, Рэйф Файнс, Эдгар Рамирез, Тоби Кеббелл, Розамунд Пайк, Билл Найи, Дэнни Хьюстон, Джон Белл, Лили Джеймс, Алехандро Нараньо, Freddy Drabble
Описание: Прошло десять лет после героического поражения Персеем морского чудовища Кракена, теперь он живет спокойной жизнью деревенского рыбака и воспитывает своего 10-летнего сына.

Тем временем, бушует борьба за превосходство между Богами и Титанами. Опасно ослабленные нехваткой человеческой любви и преданности, Боги теряют контроль над заключенными в тюрьму Титанами и их свирепым лидером, Кроносом, отцом правящих братьев Зевса, Аида и Посейдона. Давным-давно триумвират сверг своего сильного отца, отправив его гнить в мрачную пропасть Тартар, темницу, находящуюся в глубоких пределах подземного мира.

Персей не может остаться в стороне, когда Аид вместе с сыном Зевса, Аресом, заключают сделку с Кроносом, чтобы вместе уничтожить Зевса. Сила Титанов становится ещё больше, в то время как Зевс теряет свою мощь и власть, а по Земле раскидывается ад подземного мира.

Вместе с Андромедой, полубогом Агенором, сыном Посейдона и низвергнутым богом Гефестом,- Персей отправляется в опасное и отважное путешествие в подземный мир, чтобы спасти Зевса, свергнуть Титанов и сохранить людской род.
Доп. информация: Исходник видео Blu-ray Rip 1080p (вес 17,5 Гб), с Blu-ray CEE 1080p. Звук лцензия взят у rotametr.
Рейтинг MPAA: Рейтинг PG-13 (Дети до 13 лет допускаются на фильм только с родителями)
Мировая премьера: 28 марта 2012
Премьера в России: 29 марта 2012, «Каро-Премьер»
Бюджет: $150 000 000
Кассовые сборы: + $218 300 000 = $301 970 083
Изображение 5.954 (11 983)
Изображение 5.90 (38 352)

Качество: Blu-ray>DVD5 (Custom)
Формат: DVD Video
Видео кодек: MPEG2
Аудио кодек: AC3 (Dolby Digital)
Видео: NTSC 16:9 (720x480) VBR, Auto Letterboxed, Bitrate: 6.143 Mbps, 29,976 fps
Аудио 1: Russian, AC3, 3/2 (L,C,R,SL,SR)+LFE ch, 448 kbps - Профессиональный (дубляж);
Аудио 2: English, AC3, 3/2 (L,C,R,SL,SR)+LFE ch, 448 kbps - Оригинальная звуковая дорожка
Субтитры: Русские, English
Релиз группы: Изображение
Изображение
Изготовление DVD
1. Разборка Blu-ray Rip - MKVExtractGUI2 ;
2. Индексирование -DGIndexNV;
3. Кодирование видео -Rhozet Carbon Coder 3 (в 2 прохода);
4. Изготовление меню - Adobe Photoshop CS3;
5. Сборка и авторинг - DVD-lab PRO 2.

Настройки Rhozet Carbon Coder:
Изображение
Изображение
Script
LoadPlugin("C:\Program Files (x86)\DGDecNV\DGDecodeNV.dll") # подключение декодера
DGSource("C:\Film\Gnev titanov.dgi") #открытие видео
LoadPlugin("C:\Program Files (x86)\AutoYUY2\AutoYUY2.dll") #более медленный, но качественный инструмент конверсии цветового пространства
AutoYUY2() #конверсия цветового пространства
LoadPlugin("C:\Program Files (x86)\ColorMatrix\ColorMatrix.dll") #подключение плагина
ColorMatrix(mode="Rec.709->Rec.601", inputFR=false, clamp=0) # 16-235
#ColorMatrix(mode="Rec.709->Rec.601", inputFR=true, clamp=0) # 0-255
BicubicResize(720, 480, 0, 0.5) #ресайз методом Catmull-Rom spline
#AddBorders (0,0,0,0) #добавление черных полос
AssumeFPS ("ntsc_film") #изменение частоты кадров под стандарт NTSC
Финальный проект DVD Lab:
Изображение
Свернуть

DVD инф.:
Title: Wrath of the Titans Blu-ray DVD 5
Size: 4.36 Gb ( 4 567 440,00 KBytes ) - DVD-5
Enabled regions: 1, 2, 3, 4, 5, 6, 7, 8

VTS_01 :
Play Length: 01:39:25
Video: NTSC 16:9 (720x480) VBR, Auto Letterboxed
Audio:
Russian, AC3, 3/2 (L,C,R,SL,SR)+LFE ch, 448 kbps, Delay 0 mSec
English, AC3, 3/2 (L,C,R,SL,SR)+LFE ch, 448 kbps, Delay 0 mSec

Subtitles:
Russian
English

* Menus Information *

VIDEO_TS Menu
Video:
NTSC 4:3 (720x480) VBR
English Language Unit :
Title Menu

VTS_01 Menu
Video:
NTSC 16:9 (720x480) VBR
Auto Letterboxed
Audio:
Not specified (Dolby AC3, 6 ch)
English Language Unit :
Root Menu
Свернуть

Меню статичное, озвученное
Скриншоты меню
Изображение
Изображение
Изображение
Свернуть

Скриншоты фильм
Изображение
Изображение
Изображение
Изображение
Изображение
Изображение
Изображение
Свернуть

Инф. исходника:
Полное имя : C:\Film\MKV Extrakt\Wrath of the Titans BD Rip.mkv
Формат : Matroska
Версия формата : Version 2
Размер файла : 17,5 Гбайт
Продолжительность : 1 ч. 39 м.
Режим общего битрейта : Переменный
Общий поток : 25,1 Мбит/сек
Дата кодирования : UTC 2012-07-10 17:10:11
Программа кодирования : DVDFab
Библиотека кодирования : libebml v0.7.8 + libmatroska v0.8.1

Видео
Идентификатор : 1
Формат : AVC
Формат/Информация : Advanced Video Codec
Профиль формата : High@L4.1
Параметр CABAC формата : Да
Параметр ReFrames формата : 2 кадра
Параметр GOP формата : M=1, N=10
Идентификатор кодека : V_MPEG4/ISO/AVC
Продолжительность : 1 ч. 39 м.
Вид битрейта : Переменный
Битрейт : 21,9 Мбит/сек
Ширина : 1920 пикселей
Высота : 1080 пикселей
Соотношение сторон : 16:9
Частота кадров : 23,976 кадра/сек
Цветовое пространство : YUV
Субдискретизация насыщенности : 4:2:0
Битовая глубина : 8 бит
Тип развёртки : Прогрессивная
Бит/(Пиксели*Кадры) : 0.441
Размер потока : 15,2 Гбайт (87%)
Default : Да
Forced : Нет

Аудио #1
Идентификатор : 2
Формат : DTS
Формат/Информация : Digital Theater Systems
Профиль формата : MA / Core
Идентификатор кодека : A_DTS
Продолжительность : 1 ч. 39 м.
Вид битрейта : Переменный
Битрейт : 2245 Кбит/сек / 1510 Кбит/сек
Каналы : 6 каналов
Расположение каналов : Front: L C R, Side: L R, LFE
Частота : 48,0 КГц
Битовая глубина : 24 бит
Метод сжатия : Без потерь / Lossy
Язык : English
Default : Да
Forced : Нет

Аудио #2
Идентификатор : 3
Формат : AC-3
Формат/Информация : Audio Coding 3
Расширение режима : CM (complete main)
Идентификатор кодека : A_AC3
Продолжительность : 1 ч. 39 м.
Вид битрейта : Постоянный
Битрейт : 448 Кбит/сек
Каналы : 6 каналов
Расположение каналов : Front: L C R, Side: L R, LFE
Частота : 48,0 КГц
Битовая глубина : 16 бит
Метод сжатия : С потерями
Размер потока : 319 Мбайт (2%)
Язык : Russian
Default : Нет
Forced : Нет
Свернуть

Знаете ли Вы, что...
Съёмки фильма проходили в Лондоне, Южном Уэльсе и на Канарском острове Тенерифе.
На роль Андромеды рассматривались Хэйли Этвелл, Джорджина Хэйг, Джанет Монтгомери, Доминик МакЭллигот, Клеманс Поэзи.
Свернуть

Записано на DVD 5 программой ImgBurn, проверено на DVD проигрывателе.


Последний раз редактировалось mihailo999 2012-07-26 21:26, всего редактировалось 8 раз(а).
Не в сети
Профиль  
 Добавлено: 2012-07-01 14:52 (спустя 17 часов)
DVD Release Group
Аватара пользователя
Стаж: 7 лет 9 месяцев
Сообщений: 364
Спасибок: 3086
Лайков: 10
Перезалит 26.07.12г.
Видео кодировано из более качественного источника, увеличен битрейт, размер точнее подогнан под DVD 5.
Звук с лицензии, меню отредактировано.
Это окончательная редакция. :)
Не в сети
Профиль  
 Добавлено: 2015-10-31 10:57 (спустя 3 года 3 месяца)
Стаж: 5 лет 11 месяцев
Сообщений: 29
Лайков: 1
раздайте!!!! плиииз!!! :(
Не в сети
Профиль  
Начать новую темуОтветить на тему  [ Сообщений: 3 ] 
Вы не можете начинать темы
Вы не можете отвечать на сообщения
Вы не можете редактировать свои сообщения
Вы не можете удалять свои сообщения