Правила форума

  • В этом разделе создание новых тем Запрещено.
  • Для создания новых тем пользуйтесь Корневым разделом DVD и HD фильмы.
Начать новую темуОтветить на тему  [ Сообщений: 3 ] 
Торрент файл
Размер: 3.84 GB • Зарегистрирован: 5 лет • Статус: Проверено
Скачан: 147 раз • Желающих скачать: 0 • Поблагодарили: 22 раза
 Раздают: 0  |  0 KB/s  ]   Качают: 0  |  0 KB/s  ] 
 Полного источника не было 3 года 2 месяца 
Сообщения
 Добавлено: 2011-11-05 23:23
Книголюб
Аватара пользователя
Стаж: 7 лет 2 месяца
Сообщений: 2823
Спасибок: 48823
Лайков: 73
Гора-убийца
Killer Mountain
Изображение


Год выпуска: 2011
Страна: США
Жанр: Приключения, Триллер, Фантастика
Продолжительность: 01:24:42
Перевод: Профессиональный (многоголосый закадровый)

Режиссёр: Шелдон Уилсон
В ролях: Аарон Дуглас, Пол Кэмпбелл, Кертис Караваджо, Торранс Кумбс, Байрон Лоусон, Кристал Лоу, Робин Нилсен, Зак Сантьяго, Дейл Уилсон
Описание: Миллиардер Уолтер Вартон нанимает команду профессиональных альпинистов во главе с Уордом Донованом, чтобы спасти группу ученых, потерявшихся среди скал высочайшей непокоренной горы мира. Однако посреди крутых скал и отвесных расщелин Уорд обнаруживает заброшенный храмовый комплекс. Возможно это — Шангри-Ла — мистическая земля, дающая бессмертие, а может и что-то более зловещее. В любом случае Бартону надо добраться туда любой ценой…
Мировая премьера: 27 августа 2011
Бюджет: $2 000 000
Изображение 4.385 58

Качество: DVD5
Формат: DVD Video
Видео кодек: MPEG2
Аудио кодек: AC3 (Dolby Digital)
Видео: 720x576 (16:9) 25.00fps 8000kbps 0.501Bits/Pixel
Аудио #1: Русский: 48 kHz, Dolby AC3 5.1 384 kbps
Аудио #2: Английский: 48 kHz, Dolby AC3 5.1 384 kbps

MediaInfo
General
Complete name : C:\Gora.ubiytsa.2011.P.DVD5\VIDEO_TS\VTS_01_3.VOB
Format : MPEG-PS
File size : 1 024 MiB
Duration : 23mn 30s
Overall bit rate : 6 088 Kbps

Video
ID : 224 (0xE0)
Format : MPEG Video
Format version : Version 2
Format profile : Main@Main
Format settings, BVOP : Yes
Format settings, Matrix : Default
Format settings, GOP : M=3, N=12
Duration : 23mn 30s
Bit rate mode : Variable
Bit rate : 5 199 Kbps
Nominal bit rate : 8 000 Kbps
Width : 720 pixels
Height : 576 pixels
Display aspect ratio : 16:9
Frame rate : 25.000 fps
Standard : PAL
Color space : YUV
Chroma subsampling : 4:2:0
Bit depth : 8 bits
Scan type : Interlaced
Scan order : Top Field First
Compression mode : Lossy
Bits/(Pixel*Frame) : 0.501
Stream size : 874 MiB (85%)

Audio #1
ID : 189 (0xBD)-128 (0x80)
Format : AC-3
Format/Info : Audio Coding 3
Mode extension : CM (complete main)
Muxing mode : DVD-Video
Duration : 23mn 30s
Bit rate mode : Constant
Bit rate : 384 Kbps
Channel(s) : 5 channels
Channel positions : Front: L C R, Side: L R
Sampling rate : 48.0 KHz
Bit depth : 16 bits
Compression mode : Lossy
Delay relative to video : -640ms
Stream size : 64.6 MiB (6%)

Audio #2
ID : 189 (0xBD)-129 (0x81)
Format : AC-3
Format/Info : Audio Coding 3
Mode extension : CM (complete main)
Muxing mode : DVD-Video
Duration : 23mn 30s
Bit rate mode : Constant
Bit rate : 384 Kbps
Channel(s) : 5 channels
Channel positions : Front: L C R, Side: L R
Sampling rate : 48.0 KHz
Bit depth : 16 bits
Compression mode : Lossy
Delay relative to video : -640ms
Stream size : 64.6 MiB (6%)

Menu
Свернуть


Скриншоты
Изображение
Изображение
Изображение
Изображение
Свернуть
Не в сети
Профиль  
 Добавлено: 2011-11-06 13:22 (спустя 13 часов)
Аватара пользователя
Стаж: 6 лет 5 месяцев
Сообщений: 12
Спасибо!
Не в сети
Профиль  
 Добавлено: 2011-11-14 15:43 (спустя 8 дней)
Аватара пользователя
Стаж: 7 лет 2 месяца
Сообщений: 7167
Спасибок: 81983
Лайков: 2438
Хрень ещё та!
Не в сети
Профиль  
Начать новую темуОтветить на тему  [ Сообщений: 3 ] 
Вы не можете начинать темы
Вы не можете отвечать на сообщения
Вы не можете редактировать свои сообщения
Вы не можете удалять свои сообщения