Правила форума

  • В этом разделе создание новых тем Запрещено.
  • Для создания новых тем пользуйтесь Корневым разделом DVD и HD фильмы.
Начать новую темуОтветить на тему  [ Сообщений: 3 ] 
Торрент файл
Размер: 7.25 GB • Зарегистрирован: 4 года 10 месяцев • Статус: Проверено
Скачан: 125 раз • Желающих скачать: 0 • Поблагодарили: 18 раз
 Раздают: 0  |  0 KB/s  ]   Качают: 0  |  0 KB/s  ] 
 Полного источника не было 1 год 11 месяцев 
Сообщения
 Добавлено: 2012-02-01 18:52
Аватара пользователя
Стаж: 5 лет 5 месяцев
Возраст: 30
Сообщений: 353
Спасибок: 7455
Грибы 3D / One Way Trip 3D

Изображение


Год выпуска: 2011
Страна: Швейцария, Австрия (HesseGreutert Film AG, Superfilm)
Слоган: «Потеря контроля - это только начало»
Жанр: ужасы
Продолжительность: 01:25:45
Перевод: Профессиональный (дубляж)
Субтитры: Нет

Режиссёр: Маркус Вельтер / Markus Welter
Сценарист: Матиас Бауэр, Бастиан Зэк
Продюсер: Валентин Гротерт, Саймон Хессе, Стефан Барт
Оператор: Филип Зумбрунн
Композитор: Майкл Саутер

В ролях: Сабрина Рейтер, Мелани Винигер, Херберт Лайзер, Мартин Лус, Аарон Хиц, Маттиас Бритшджи, Саймон Кэсер, Изабелль Барт, Гарри Лампль, Таня Рауниг.

Описание: В центре событий группа молодых людей отправившихся в лес на поиски галлюциногенных грибов. Добравшись до места, они начинают сбор грибов, а вечером решают немного оттянуться. Веселье заканчивается, когда один из ребят, отлучившийся за пивом, возвращается с разбитым в кровь лицом. Что с ним случилось, он понятия не имеет. Ребята решают срочно уйти из леса, но обнаруживают, что их машина кем-то сломана, а телефоны не работают. Они решают искать помощи на ближайшей ферме, которую они приметили по дороге в лес. Но туда не стоило идти. Неизвестные охотники начинают убивать ребят одного за другим…

Доп.информация: Две версии 2D и 3D
Мировая премьера: 6 сентября 2011
Премьера в России: 1 декабря 2011, «Top Film Distribution» 3D

Изображение Изображение

Сэмпл 2D Сэмпл 3D

Качество: DVD9 R5
Формат: DVD Video
Видео кодек: MPEG2
Аудио кодек: AC3 (Dolby Digital)
Видео: PAL 16:9 (720x576(0.441)) MPEG Video, 25,000 кадр/сек, 4570 Кбит/сек
Аудио #1: Russian (Dolby AC3, 6 ch) 448 Кбит/сек, 48,0 КГц [Профессиональный (дубляж)]
Субтитры: Нет

"DVDInfo"
Title:
Size: 7.25 Gb ( 7 607 362 KBytes ) - DVD-9
Enabled regions: 1, 2, 3, 4, 5, 6, 7, 8

VTS_01 :
Play Length: 00:00:16
Video: PAL 16:9 (720x576) VBR, Auto Pan&Scan
Audio:
Russian (Dolby AC3, 2 ch)

VTS_02 :
Play Length: 01:25:45
Video: PAL 16:9 (720x576) VBR, Auto Pan&Scan
Audio:
Russian (Dolby AC3, 6 ch)

VTS_03 :
Play Length: 01:25:45
Video: PAL 16:9 (720x576) VBR, Auto Pan&Scan
Audio:
Russian (Dolby AC3, 6 ch)

Menu Video:
PAL 16:9 (720x576) VBR
Auto Pan&Scan
Menu Audio:
Not specified (Dolby AC3, 2 ch)
Menu Subtitles:
Not specified
Menu Russian Language Unit :
Root Menu
Chapter (PTT) Menu
Свернуть

"MediaInfo"
Общее
Полное имя : G:\Новинки 2012\Griby.3D.2011.DVD9\VIDEO_TS\VTS_02_3.VOB
Формат : MPEG-PS
Размер файла : 1024 Мбайт
Продолжительность : 27 м.
Режим общего битрейта : Переменный
Общий поток : 5120 Кбит/сек

Видео
Идентификатор : 224 (0xE0)
Формат : MPEG Video
Версия формата : Version 2
Профиль формата : Main@Main
Параметр BVOP формата : Да
Параметр матрицы формата : Выборочная
Параметр GOP формата : M=3, N=15
Продолжительность : 27 м.
Вид битрейта : Переменный
Битрейт : 4570 Кбит/сек
Максимальный битрейт : 8500 Кбит/сек
Ширина : 720 пикселей
Высота : 576 пикселей
Соотношение сторон : 16:9
Частота кадров : 25,000 кадров/сек
Стандарт вещания : PAL
Цветовое пространство : YUV
Субдискретизация насыщенности : 4:2:0
Битовая глубина : 8 бит
Тип развёртки : Прогрессивная
Метод сжатия : С потерями
Бит/(Пиксели*Кадры) : 0.441
Размер потока : 914 Мбайт (89%)

Аудио
Идентификатор : 189 (0xBD)-128 (0x80)
Формат : AC-3
Формат/Информация : Audio Coding 3
Расширение режима : CM (complete main)
Режим смешивания : DVD-Video
Продолжительность : 27 м.
Вид битрейта : Постоянный
Битрейт : 448 Кбит/сек
Каналы : 6 каналов
Расположение каналов : Front: L C R, Side: L R, LFE
Частота : 48,0 КГц
Битовая глубина : 16 бит
Метод сжатия : С потерями
Задержка видео : -304 мс.
Размер потока : 89,6 Мбайт (9%)

Свернуть

Скриншоты меню
Изображение
Изображение
Изображение
Свернуть
Скриншоты фильма в 2D
Изображение
Изображение
Изображение
Изображение
Свернуть
Скриншоты фильма в 3D
Изображение
Изображение
Изображение
Изображение
Свернуть


Изображение
Не в сети
Профиль  
 Добавлено: 2012-02-01 19:48 (спустя 55 минут)
Стаж: 5 лет 7 месяцев
Сообщений: 11
Как фильм? Первый был хорош.
Не в сети
Профиль  
 Добавлено: 2012-02-08 18:02 (спустя 6 дней)
Аватара пользователя
Стаж: 6 лет 11 месяцев
Сообщений: 167
туфта полная !!!!
Не в сети
Профиль  
Начать новую темуОтветить на тему  [ Сообщений: 3 ] 
Вы не можете начинать темы
Вы не можете отвечать на сообщения
Вы не можете редактировать свои сообщения
Вы не можете удалять свои сообщения