Правила форума

  • В этом разделе создание новых тем Запрещено.
  • Для создания новых тем пользуйтесь Корневым разделом DVD и HD фильмы.
Начать новую темуОтветить на тему  [ Сообщений: 9 ] 
Торрент файл
Размер: 5 GB • Зарегистрирован: 5 лет 6 месяцев • Статус: Проверено
Скачан: 777 раз • Желающих скачать: 0 • Поблагодарили: 127 раз
 Раздают: 0  |  0 KB/s  ]   Качают: 0  |  0 KB/s  ] 
 Полного источника не было 1 год 4 месяца 
Сообщения
 Добавлено: 2011-06-04 06:40
DVD Release Group
Аватара пользователя
Стаж: 7 лет 1 месяц
Сообщений: 3559
Спасибок: 247362
Лайков: 1018
Ханна. Совершенное оружие

Hanna

«Она - совершенное оружие»


Изображение


Год выпуска: 2011
Страна: США, Германия, Великобритания / Marty Adelstein Productions, Studio Babelsberg
Жанр: Боевик, триллер, криминал, детектив
Продолжительность: 01:46:24
Перевод: Профессиональный (полное дублирование) Лицензия
Субтитры: Нет
Режиссер: Джо Райт
Сценарий: Сет Локхед, Дэвид Фарр
Продюсер: Марти Адельштейн, Лесли Холлерэн, Скотт Немес
Оператор: Альвин Кюхлер
Композитор: Том Роулэндс, Эд Саймонс
Художник: Сара Гринвуд, Нетти Чэпман, Ник Готтшалк
Монтаж: Пол Тотхилл
В ролях: Сирша Ронан, Эрик Бана, Кейт Бланшетт, Том Холландер, Пэрис Эрроусмит, Оливия Уильямс, Джейсон Флеминг, Джон Макмилла, Тим Бекманн, Вики Крипс
Роли дублировали: Вероника Лысакова, Анатолий Белый, Виктория Тарасова, Сергей Бурунов, Юлия Чебакова
Описание: Хрупкая на первый взгляд Ханна — идеальный солдат. Тайна ее рождения ревностно охраняется американским правительством. Ее миссия — отомстить бывшим работодателям отца, некогда секретного агента. Спецслужбы всего мира выходят на след девочки-убийцы. Охота начинается…
Премьера (мир): 7 апреля 2011
Премьера (РФ): 5 мая 2011, «Вольга»
Релиз на DVD: 4 июня 2011, «Вольга»
Кинопоиск: 6.568 (2713)
IMDb: 7.50 (9195)
Дополнительно: Интервью, на съемочной площадке
Изображение
Качество: DVD9
Формат: DVD Video
Видео кодек: MPEG2
Аудио кодек: AC3
Видео: MPEG2 Video 720x576 (16:9) 29.97fps 4001Kbps
Аудио:
Аудио Rus: Dolby AC3 48000Hz 6ch 448Kbps
Аудио Rus: Dolby DTS 48000Hz 6ch 768Kbps

"MediaInfo"

Общее
Полное имя : Hanna.sovershennoe.oruzhie.2011.DVD9\VIDEO_TS\VTS_03_1.VOB
Формат : MPEG-PS
Размер файла : 1024 Мбайт
Продолжительность : 26 м.
Общий поток : 5309 Кбит/сек

Видео
Идентификатор : 224 (0xE0)
Формат : MPEG Video
Версия формата : Version 2
Профиль формата : Main@Main
Параметр BVOP формата : Да
Параметр матрицы формата : По умолчанию
Продолжительность : 26 м.
Вид битрейта : Переменный
Битрейт : 4001 Кбит/сек
Номинальный битрейт : 8000 Кбит/сек
Ширина : 720 пикс.
Высота : 576 пикс.
Соотношение сторон : 16:9
Частота кадров : 25,000 кадр/сек
Стандарт вещания : PAL
Цветовое пространство : YUV
Подвыборка цветности : 4:2:0
Битовая глубина : 8 бит
Тип развёртки : Прогрессивная
Метод сжатия : С потерями
Бит/(Пиксели*Кадры) : 0.386
Размер потока : 772 Мбайт (75%)

Аудио #1
Идентификатор : 189 (0xBD)-128 (0x80)
Формат : AC-3
Формат/Информация : Audio Coding 3
Расширение режима : CM (complete main)
Режим смешивания : DVD-Video
Продолжительность : 26 м.
Вид битрейта : Постоянный
Битрейт : 448 Кбит/сек
Канал(ы) : 6 канала(ов)
Расположение каналов : Front: L C R, Side: L R, LFE
Частота : 48,0 КГц
Битовая глубина : 16 бит
Метод сжатия : С потерями
Размер потока : 86,4 Мбайт (8%)

Аудио #2
Идентификатор : 189 (0xBD)-137 (0x89)
Формат : DTS
Формат/Информация : Digital Theater Systems
Режим смешивания : DVD-Video
Продолжительность : 26 м.
Вид битрейта : Постоянный
Битрейт : 755 Кбит/сек
Канал(ы) : 6 канала(ов)
Расположение каналов : Front: L C R, Side: L R, LFE
Частота : 48,0 КГц
Битовая глубина : 24 бит
Метод сжатия : С потерями
Размер потока : 145 Мбайт (14%)
Свернуть
"Скриншоты"

Изображение
Изображение
Изображение
Изображение
Изображение
Изображение
Изображение
Свернуть
Раздача группы:
Изображение
Не в сети
Профиль  
 Добавлено: 2011-06-04 11:38 (спустя 4 часа)
Стаж: 5 лет 8 месяцев
Сообщений: 94
Спасибо за раздачу,посмотрю отпишусь как фильм. :)
Не в сети
Профиль  
 Добавлено: 2011-06-04 18:06 (спустя 6 часов)
Аватара пользователя
Стаж: 7 лет 8 месяцев
Сообщений: 71
спасибо большое
Не в сети
Профиль  
 Добавлено: 2011-06-09 21:38 (спустя 5 дней)
Стаж: 5 лет 8 месяцев
Сообщений: 94
Фильм на мой вкус не очень,на разок посмотреть,какой то он сумбурный.Но всё равно спасибо.
Не в сети
Профиль  
 Добавлено: 2011-06-11 19:25 (спустя 1 день 21 час)
Аватара пользователя
Стаж: 7 лет 3 месяца
Возраст: 34
Сообщений: 127
согласен на разок можно!!спец эфектов нет !!и многова другова!!
спасибо !!
Не в сети
Профиль  
 Добавлено: 2011-06-24 00:32 (спустя 12 дней)
Аватара пользователя
Стаж: 6 лет 3 месяца
Сообщений: 15
Извиняюсь, конечно, но фильм не очень :ne_znayu:
_________________
сегодня всстал пораньше, чтобы увидеть закат!!!!!!!!!!!!!!
Не в сети
Профиль  
 Добавлено: 2011-07-05 23:37 (спустя 11 дней)
Аватара пользователя
Стаж: 8 лет 3 месяца
Возраст: 43
Сообщений: 3290
Спасибок: 21012
Лайков: 3
Отлепляем :(
_________________
Изображение
Не в сети
Профиль  
 Добавлено: 2011-08-06 10:33 (спустя 1 месяц)
Аватара пользователя
Стаж: 5 лет 5 месяцев
Сообщений: 30
:bra_vo: :bra_vo: :bra_vo:
Не в сети
Профиль  
 Добавлено: 2011-10-03 10:04 (спустя 1 месяц 27 дней)
Аватара пользователя
Стаж: 8 лет 11 месяцев
Возраст: 38
Сообщений: 86
Лайков: 26
Отличный фильм. Сирша Ронан прекрасна, как и в фильме Милые кости :bra_vo: :bra_vo: :bra_vo:
Тем кому не понравился фильм - смотреть всяких Трансформеров! ИХМО
Не в сети
Профиль  
Начать новую темуОтветить на тему  [ Сообщений: 9 ] 
Вы не можете начинать темы
Вы не можете отвечать на сообщения
Вы не можете редактировать свои сообщения
Вы не можете удалять свои сообщения