Правила форума

  • В этом разделе создание новых тем Запрещено.
  • Для создания новых тем пользуйтесь Корневым разделом DVD и HD фильмы.
Начать новую темуОтветить на тему  [ Сообщений: 3 ] 
Торрент файл
Размер: 4.3 GB • Зарегистрирован: 4 года 2 месяца • Статус: Проверено
Скачан: 93 раза • Желающих скачать: 0 • Поблагодарили: 33 раза
 Раздают: 0  |  0 KB/s  ]   Качают: 0  |  0 KB/s  ] 
 Полного источника не было 10 месяцев 
Сообщения
 Добавлено: 2012-09-20 03:13
DVD Release Group
Аватара пользователя
Стаж: 7 лет 1 месяц
Сообщений: 3569
Спасибок: 247716
Лайков: 1020
Хижина в лесу

The Cabin in the Woods

«Думаете, знакомая история?»


Изображение


Год выпуска: 2011
Страна: США / AFX Studios, Metro-Goldwyn-Mayer (MGM), Mutant Enemy
Жанр: Ужасы, фантастика, триллер
Продолжительность: 01:35:00
Перевод: Профессиональный (полное дублирование)
Субтитры: Русские
Режиссер: Дрю Годдард
В ролях: Ричард Дженкинс, Брэдли Уитфорд, Джесси Уильямс, Крис Хемсворт, Фрэн Кранц, Кристин Нора Коннолли, Анна Хатчисон, Брайан Дж. Уайт, Эми Эккер, Джоделль Ферланд
Описание: Группе друзей, молодым клеркам, предстоит провести ночь в лесу в стенах причудливого дома. За закрытыми дверями происходит что-то странное и ужасное. Молодые люди даже не успевают понять, что именно им угрожает, но единственное, что они знают — что время быстро уходит.
Кинопоиск: 7.1 (14650)
IMDb: 7.4 (74997)
Дополнительно:
Исходник: DVD9 (6.84Гб) [лицензия, PAL 16:9].
Убрано: Трейлер, анонсы, Russian (DTS, 5 ch), заставки и предупреждение.
Сжатие фильма 29% сжатия (без учета ручного перераспределения битрейта, за счет большего сжатия конечных титров).
Работоспособность проверена на софтовом плеере Windows Media и бытовом LG.
Качество: DVD5 (Сжатый)
Формат: DVD Video
Видео кодек: MPEG2
Аудио кодек: AC3
Видео: 720х576 25fps 6115Kbps
Аудио:
Аудио Rus: AC3 48kHz 6ch 384Kbps
Аудио Eng: AC3 48kHz 6ch 384Kbps
"MediaInfo"
Формат : MPEG-PS
Размер файла : 1024 Мбайт
Продолжительность : 20 м.
Режим общего битрейта : Переменный
Общий поток : 7023 Кбит/сек

Видео
Идентификатор : 224 (0xE0)
Формат : MPEG Video
Версия формата : Version 2
Профиль формата : Main@Main
Параметр BVOP формата : Да
Параметр матрицы формата : Выборочная
Продолжительность : 20 м.
Вид битрейта : Переменный
Битрейт : 6115 Кбит/сек
Максимальный битрейт : 8452 Кбит/сек
Ширина : 720 пикселей
Высота : 576 пикселей
Соотношение сторон : 16:9
Частота кадров : 25,000 кадров/сек
Стандарт вещания : PAL
Цветовое пространство : YUV
Субдискретизация насыщенности : 4:2:0
Битовая глубина : 8 бит
Тип развёртки : Чересстрочная
Порядок развёртки : Верхнее поле первое
Метод сжатия : С потерями
Бит/(Пиксели*Кадры) : 0.590
Размер потока : 891 Мбайт (87%)

Аудио #1
Идентификатор : 189 (0xBD)-128 (0x80)
Формат : AC-3
Формат/Информация : Audio Coding 3
Расширение режима : CM (complete main)
Режим смешивания : DVD-Video
Продолжительность : 20 м.
Вид битрейта : Постоянный
Битрейт : 384 Кбит/сек
Каналы : 6 каналов
Расположение каналов : Front: L C R, Side: L R, LFE
Частота : 48,0 КГц
Битовая глубина : 16 бит
Метод сжатия : С потерями
Задержка видео : -584 мс.
Размер потока : 56,0 Мбайт (5%)

Аудио #2
Идентификатор : 189 (0xBD)-129 (0x81)
Формат : AC-3
Формат/Информация : Audio Coding 3
Расширение режима : CM (complete main)
Режим смешивания : DVD-Video
Продолжительность : 20 м.
Вид битрейта : Постоянный
Битрейт : 384 Кбит/сек
Каналы : 6 каналов
Расположение каналов : Front: L C R, Side: L R, LFE
Частота : 48,0 КГц
Битовая глубина : 16 бит
Метод сжатия : С потерями
Задержка видео : -584 мс.
Размер потока : 56,0 Мбайт (5%)

Текст
Идентификатор : 189 (0xBD)-32 (0x20)
Формат : RLE
Формат/Информация : Run-length encoding
Режим смешивания : DVD-Video
Задержка видео : -200 мс.

Меню
Свернуть

"Скриншоты"
Изображение
Изображение
Изображение
Изображение
Изображение
Изображение
Изображение
Изображение
Изображение
Свернуть

Раздача группы:
Изображение
Не в сети
Профиль  
 Добавлено: 2012-09-26 21:21 (спустя 6 дней)
Кинокомментатор
Аватара пользователя
Стаж: 9 лет 1 месяц
Сообщений: 1332
Лайков: 54
на самом деле не ожидал что так скажу!) но фильм реально дико крут!) без компромисов) всё красиво!) интересно!) это больше из области Зомбиленда) нежели ужасов:) стебать так стебать! убивать так убивать! круто!) 8/10 точно!)
смотрите и говорите всем что б смотрели!)
_________________
Я ВКонтакте
Не в сети
Профиль  
 Добавлено: 2012-12-12 22:27 (спустя 2 месяца 16 дней)
Стаж: 5 лет 10 месяцев
Сообщений: 15
Да ну,не особо впечатлил,на разок и посмеяться можно. 5/10
Не в сети
Профиль  
Начать новую темуОтветить на тему  [ Сообщений: 3 ] 
Вы не можете начинать темы
Вы не можете отвечать на сообщения
Вы не можете редактировать свои сообщения
Вы не можете удалять свои сообщения