Правила форума

  • В этом разделе создание новых тем Запрещено.
  • Для создания новых тем пользуйтесь Корневым разделом DVD и HD фильмы.
Начать новую темуОтветить на тему  [ Сообщений: 5 ] 
Торрент файл
Размер: 4.37 GB • Зарегистрирован: 4 года 11 месяцев • Статус: Проверено
Скачан: 387 раз • Желающих скачать: 0 • Поблагодарили: 58 раз
 Раздают: 0  |  0 KB/s  ]   Качают: 0  |  0 KB/s  ] 
 Полного источника не было 3 года 1 месяц 
Сообщения
 Добавлено: 2011-12-24 01:19
Руководитель релиз-группы
Аватара пользователя
Стаж: 7 лет 5 месяцев
Возраст: 31
Сообщений: 3406
Спасибок: 46729
Лайков: 5
Изображение

Хочу как ты
The Change-Up


Год выпуска: 2011
Страна: США
Слоган: «Иногда мужчины меняются»
Жанр: комедия
Продолжительность: 01:47:50
Перевод: Профессиональный (полное дублирование)
Режиссер: Дэвид Добкин
Сценарий: Джон Лукас, Скотт Мур
Продюсер: Дэвид Добкин, Нил Х. Мориц, Джозеф М. Карачиоло мл.
Оператор: Эрик Алан Эдвардс
Композитор: Джон Дебни
В ролях: Райан Рейнольдс, Джейсон Бейтман, Лесли Манн, Оливия Уайлд, Алан Аркин, Мирчи Монро, Грегори Итцин, Нед Шмидтке, Ло Минг, Сидни Рувьер
Бюджет: $52 000 000
Сборы в мире: $71 391 900
Описание: В детстве Митч и Дейв были неразлучными друзьями. Но со временем их дороги разошлись. Дейв стал успешным юристом и примерным семьянином. Митч же остался холостяком и сердцеедом. Он считает, что у друга есть все, о чем только можно мечтать: прекрасная жена Джейми, любящие дети и крутая работа. Дейву же представляется сказочной беззаботная жизнь Митча, который днем курит травку, а ночи проводит в компании красивых женщин.
Но однажды в жизни друзей все переворачивается вверх дном: Митч становится Дейвом, а Дейв - Митчем.
Митчу приходится заняться воспитанием троих детей Дейва и взять на себя его работу. На носу - крупная сделка, от результатов которой зависит карьера его друга, но Митч не смыслит в этом ничего.
Ситуацию также усложняет обворожительная коллега Дейва, Сабрина, которая не дает прохода Митчу. Старый Митч пошел бы на все, чтобы провести время с этой девушкой. Проблема лишь в том, что в его теле живет Дейв, идеальный муж и папаша, который не может расслабиться ни на минуту.
Друзья вскоре понимают, что реальность не такая радужная, как фантазии.
Героям придется как следует постараться, чтобы вернуть все на свое место и не разрушить окончательно жизни друг друга.
Изображение
MPAA: Изображение
Релиз: Изображение Раздача группы: Изображение
Качество: DVD5 (сжатый)
Формат: DVD Video
Видео: MPEG2; PAL 16:9 (720x576)
Аудио #1: Dolby AC3, 6 ch, 384 Kbps Russian
Аудио #2: Dolby AC3, 6 ch, 384 Kbps English
Субтитры: Английские, польские, эстонские, латышские, латвийские, украинские
Дополнительная информация :
Исходник : DVD9 (6.02 Гб) [лицензия, PAL 16:9]
Убрано : допы, реклама, заставки, предупреждения, Polish (Dolby AC3, 6 ch)
Сжатие фильма : 12.8 % сжатия (без учета ручного перераспределения битрейта, за счет большего сжатия конечных титров)
использовались программы
    DVDRemakePro
    Photoshop
    MuxMan
    Rebuilder и CCE (Cinema Craft Encoder), 5 проходов
    Работоспособность проверена на софтовом плеере Windows Media и бытовом LG
Свернуть
DVDInfo
    Title: Hochu.kak.ti_2011_DVD5.[R.G.Daredevil]
    Size: 4.37 Gb ( 4 577 274,00 KBytes ) - DVD-5
    Enabled regions: 1, 2, 3, 4, 5, 6, 7, 8

    VTS_01 :
    Play Length: 00:00:00
    Video: PAL 16:9 (720x576) VBR, Auto Letterboxed
    Audio:
    English (Dolby AC3, 6 ch)

    VTS_02 :
    Play Length: 00:00:00
    Video: PAL 16:9 (720x576) VBR, Auto Letterboxed
    Audio:
    English (Dolby AC3, 6 ch)

    VTS_03 :
    Play Length: 00:00:00
    Video: PAL 16:9 (720x576) VBR, Auto Letterboxed

    VTS_04 :
    Play Length: 01:47:50
    Video: PAL 16:9 (720x576) VBR, Auto Letterboxed
    Audio:
    English (Dolby AC3, 6 ch)
    Russian (Dolby AC3, 6 ch)
    Subtitles:
    English
    Polish
    Estonian
    Latvian
    Lithuanian
    Ukrainian
    Russian

    VTS_05 :
    Play Length: 00:00:00+00:00:00
    Video: PAL 16:9 (720x576) VBR, Auto Letterboxed
    Audio:
    English (Dolby AC3, 2 ch)
    Subtitles:
    English
    Russian
    Polish

    VTS_06 :
    Play Length: 00:00:00+00:00:00+00:00:00+00:00:00+00:00:00+00:00:00+00:00:00+00:00:00+00:00:00+00:00:00
    Video: PAL 16:9 (720x576) VBR, Auto Letterboxed
    Audio:
    English (Dolby AC3, 2 ch)
    Subtitles:
    English
    Russian
    Polish
Свернуть
mediainfo
    Формат : MPEG-PS
    Размер файла : 1024 Мбайт
    Продолжительность : 25 м.
    Режим общего битрейта : Переменный
    Общий поток : 5599 Кбит/сек

    Видео
    Идентификатор : 224 (0xE0)
    Формат : MPEG Video
    Версия формата : Version 2
    Профиль формата : Main@Main
    Параметр BVOP формата : Да
    Параметр матрицы формата : Выборочная
    Продолжительность : 25 м.
    Вид битрейта : Переменный
    Битрейт : 4720 Кбит/сек
    Максимальный битрейт : 7648 Кбит/сек
    Ширина : 720 пикселей
    Высота : 576 пикселей
    Соотношение сторон : 16:9
    Частота кадров : 25,000 кадров/сек
    Стандарт вещания : PAL
    Цветовое пространство : YUV
    Субдискретизация насыщенности : 4:2:0
    Битовая глубина : 8 бит
    Тип развёртки : Чересстрочная
    Порядок развёртки : Верхнее поле первое
    Метод сжатия : С потерями
    Бит/(Пиксели*Кадры) : 0.455
    Размер потока : 863 Мбайт (84%)

    Аудио #1
    Идентификатор : 189 (0xBD)-128 (0x80)
    Формат : AC-3
    Формат/Информация : Audio Coding 3
    Расширение режима : CM (complete main)
    Режим смешивания : DVD-Video
    Продолжительность : 25 м.
    Вид битрейта : Постоянный
    Битрейт : 384 Кбит/сек
    Каналы : 6 каналов
    Расположение каналов : Front: L C R, Side: L R, LFE
    Частота : 48,0 КГц
    Битовая глубина : 16 бит
    Метод сжатия : С потерями
    Размер потока : 70,2 Мбайт (7%)

    Аудио #2
    Идентификатор : 189 (0xBD)-129 (0x81)
    Формат : AC-3
    Формат/Информация : Audio Coding 3
    Расширение режима : CM (complete main)
    Режим смешивания : DVD-Video
    Продолжительность : 25 м.
    Вид битрейта : Постоянный
    Битрейт : 384 Кбит/сек
    Каналы : 6 каналов
    Расположение каналов : Front: L C R, Side: L R, LFE
    Частота : 48,0 КГц
    Битовая глубина : 16 бит
    Метод сжатия : С потерями
    Размер потока : 70,2 Мбайт (7%)

    Текст #1
    Идентификатор : 189 (0xBD)-32 (0x20)
    Формат : RLE
    Формат/Информация : Run-length encoding
    Режим смешивания : DVD-Video

    Текст #2
    Идентификатор : 189 (0xBD)-33 (0x21)
    Формат : RLE
    Формат/Информация : Run-length encoding
    Режим смешивания : DVD-Video

    Текст #3
    Идентификатор : 189 (0xBD)-34 (0x22)
    Формат : RLE
    Формат/Информация : Run-length encoding
    Режим смешивания : DVD-Video

    Текст #4
    Идентификатор : 189 (0xBD)-35 (0x23)
    Формат : RLE
    Формат/Информация : Run-length encoding
    Режим смешивания : DVD-Video

    Текст #5
    Идентификатор : 189 (0xBD)-36 (0x24)
    Формат : RLE
    Формат/Информация : Run-length encoding
    Режим смешивания : DVD-Video

    Текст #6
    Идентификатор : 189 (0xBD)-37 (0x25)
    Формат : RLE
    Формат/Информация : Run-length encoding
    Режим смешивания : DVD-Video

    Меню
Свернуть
Скриншоты

меню
Изображение
Изображение
Изображение
Изображение
Изображение
Свернуть
Изображение
Изображение
Изображение
Изображение
Свернуть
Не в сети
Профиль  
 Добавлено: 2011-12-24 14:09 (спустя 12 часов)
Аватара пользователя
Стаж: 8 лет 7 месяцев
Сообщений: 760
Спасибок: 3256
Лайков: 7
Столько релизов классных перед новым годом, даже не знаю что и смотреть!.. :bra_vo:
Не в сети
Профиль  
 Добавлено: 2011-12-25 00:32 (спустя 10 часов)
Кинокомментатор
Аватара пользователя
Стаж: 9 лет 1 месяц
Сообщений: 1332
Лайков: 54
пазитивное кино!) до жути милое) и пошлое:) и крутое) и по правде) мне очень понравилось)
девушки красивые) ситуации правдивые:) сюжет стандартный:) ничего сверхнового) всё старо конечно:) но очень пазитивное кино, для просмотра с девушкой за неделю до НГ) хотя про НГ вообще не особо в фильме)))
7 или 8 ) хз) /10
_________________
Я ВКонтакте
Не в сети
Профиль  
 Добавлено: 2012-04-14 19:36 (спустя 3 месяца 20 дней)
Стаж: 7 лет 8 месяцев
Сообщений: 47
А где соьбственно перевод - филь на англицком... :'(
Не в сети
Профиль  
 Добавлено: 2012-04-14 21:01 (спустя 1 час 25 минут)
Аватара пользователя
Стаж: 6 лет 11 месяцев
Сообщений: 167
ахеренный фильм ,
Не в сети
Профиль  
Начать новую темуОтветить на тему  [ Сообщений: 5 ] 
Вы не можете начинать темы
Вы не можете отвечать на сообщения
Вы не можете редактировать свои сообщения
Вы не можете удалять свои сообщения