Правила форума

  • В этом разделе создание новых тем Запрещено.
  • Для создания новых тем пользуйтесь Корневым разделом DVD и HD фильмы.
Начать новую темуОтветить на тему  [ Сообщений: 7 ] 
Торрент файл
Размер: 7.89 GB • Зарегистрирован: 4 года 10 месяцев • Статус: Проверено
Скачан: 168 раз • Желающих скачать: 0 • Поблагодарили: 20 раз
 Раздают: 0  |  0 KB/s  ]   Качают: 0  |  0 KB/s  ] 
 Полного источника не было 2 года 2 месяца 
Сообщения
 Добавлено: 2012-01-17 23:49
Аватара пользователя
Стаж: 5 лет 5 месяцев
Возраст: 30
Сообщений: 353
Спасибок: 7455
Ходорковский / Khodorkovsky

Изображение


Год выпуска: 2011
Страна: Германия (Bayerischer Rundfunk (BR), LaLa Films, LE Vision Film- und Fernsehproduktion)
Жанр: документальный, драма, биография
Продолжительность: 01:51:56 + 02:06:21
Перевод: Оригинальный + Профессиональный (одноголосый закадровый)
Субтитры: Русские

Режиссёр: Сирилл Туши / Cyril Tuschi
Сценарист: Сирилл Туши / Cyril Tuschi
Продюсер: Сирил Туши, Симона Бауманн, Майке Беба
Оператор: Питер Дофлер, Евгений Шлегель, Сирил Туши

В ролях: Михаил Ходорковский, Владимир Путин, Джордж У. Буш, Павел Ходорковский, Марина Ходорковская, Елена Ходорковская, Антон Дрель, Йошка Фишер, Анатолий Чубайс, Григорий Явлинский...

Описание: Документальный фильм о жизни нефтяного магната Михаила Ходорковского, прошедшего путь от комсомольского лидера до капиталиста и ставшего впоследствии самым известным узником России.

Доп.информация: Фильм о фильме, Фотогаллерея, Отзывы прессы, Интервью с режиссёром, Обсуждение фильма, О создателях.
Мировая премьера: 14 февраля 2011
Премьера в России: 1 декабря 2011, «KinoClub»

Изображение Изображение Изображение

Качество: DVD9 R5
Формат: DVD Video
Видео кодек: MPEG2
Аудио кодек: AC3 (Dolby Digital)
Видео: PAL 16:9 (720x576(0.532)) MPEG Video, 25,000 кадр/сек, 5512 Кбит/сек
Аудио #1: Russian (Dolby AC3, 2 ch) 192 Кбит/сек, 48,0 КГц [Профессиональный (одноголосый закадровый)]
Субтитры: Русские

"DVDInfo"
Title:
Size: 7.89 Gb ( 8 268 296 KBytes ) - DVD-9
Enabled regions: 1, 2, 3, 4, 5, 6, 7, 8

VTS_01 :
Play Length: 01:51:56+02:06:21+00:02:37+00:04:00+00:04:06+00:03:10+00:02:31
Video: PAL 16:9 (720x576) VBR, Auto Pan&Scan
Audio:
Russian (Dolby AC3, 2 ch)
Subtitles:
Russian

Menu Video:
PAL 16:9 (720x576) VBR
Auto Pan&Scan
Menu Subtitles:
Not specified
Menu Russian Language Unit :
Root Menu
Свернуть

"MediaInfo"
Общее
Полное имя : G:\Новинки 2011\Hodorkovskij.2010.DVD9\VIDEO_TS\VTS_01_1.VOB
Формат : MPEG-PS
Размер файла : 1024 Мбайт
Продолжительность : 24 м.
Общий поток : 5819 Кбит/сек

Видео
Идентификатор : 224 (0xE0)
Формат : MPEG Video
Версия формата : Version 2
Профиль формата : Main@Main
Параметр BVOP формата : Да
Параметр матрицы формата : Выборочная
Параметр GOP формата : M=3, N=12
Продолжительность : 24 м.
Вид битрейта : Переменный
Битрейт : 5512 Кбит/сек
Максимальный битрейт : 8000 Кбит/сек
Ширина : 720 пикселей
Высота : 576 пикселей
Соотношение сторон : 16:9
Частота кадров : 25,000 кадров/сек
Стандарт вещания : PAL
Цветовое пространство : YUV
Субдискретизация насыщенности : 4:2:0
Битовая глубина : 8 бит
Тип развёртки : Прогрессивная
Метод сжатия : С потерями
Бит/(Пиксели*Кадры) : 0.532
Размер потока : 970 Мбайт (95%)

Аудио
Идентификатор : 189 (0xBD)-128 (0x80)
Формат : AC-3
Формат/Информация : Audio Coding 3
Расширение режима : CM (complete main)
Режим смешивания : DVD-Video
Продолжительность : 24 м.
Вид битрейта : Постоянный
Битрейт : 192 Кбит/сек
Каналы : 2 канала
Расположение каналов : Front: L R
Частота : 48,0 КГц
Битовая глубина : 16 бит
Метод сжатия : С потерями
Размер потока : 33,8 Мбайт (3%)

Свернуть

Скриншоты
Скриншоты меню
Изображение
Изображение
Изображение
Свернуть
Изображение
Изображение
Изображение
Изображение
Изображение
Изображение
Изображение
Изображение
Свернуть


ИзображениеИзображение
Не в сети
Профиль  
 Добавлено: 2012-01-18 06:22 (спустя 6 часов)
Аватара пользователя
Стаж: 8 лет 3 месяца
Возраст: 43
Сообщений: 3290
Спасибок: 21012
Лайков: 3
Возможно придется перенести в документалку, а пока пусть побудет тут :)
_________________
Изображение
Не в сети
Профиль  
 Добавлено: 2012-01-20 07:38 (спустя 2 дня 1 час)
Стаж: 6 лет 2 месяца
Сообщений: 5

Иванишко:

Возможно придется перенести в документалку, а пока пусть побудет тут :)
ну и правильно- многие в документалку не лезут, а тут посмотрят, для общего, так сказать, развития.
Не в сети
Профиль  
 Добавлено: 2012-01-20 13:44 (спустя 6 часов)
Стаж: 7 лет 8 месяцев
Сообщений: 31
Надо сразу перевести в "Документалку"-не надо не кому навязывать чье-то мнение и "ящика" хватает.
Не в сети
Профиль  
 Добавлено: 2012-03-12 17:54 (спустя 1 месяц 23 дня)
Стаж: 8 лет 6 месяцев
Сообщений: 48
Спасибок: 1
спасибо....классный, но очень грустный фильм....хотя время покажет....
Не в сети
Профиль  
 Добавлено: 2012-03-19 14:29 (спустя 6 дней)
Аватара пользователя
Стаж: 9 лет
Сообщений: 242
Спасибок: 1796
Лайков: 7
На главном эту раздачу закрыли.
Не в сети
Профиль  
 Добавлено: 2012-04-07 21:48 (спустя 19 дней)
Аватара пользователя
Стаж: 8 лет 11 месяцев
Сообщений: 213
Спасибок: 126

P1uto:

На главном эту раздачу закрыли.

Немудрено)
Не в сети
Профиль  
Начать новую темуОтветить на тему  [ Сообщений: 7 ] 
Вы не можете начинать темы
Вы не можете отвечать на сообщения
Вы не можете редактировать свои сообщения
Вы не можете удалять свои сообщения