Правила форума

  • В этом разделе создание новых тем Запрещено.
  • Для создания новых тем пользуйтесь Корневым разделом DVD и HD фильмы.
Начать новую темуОтветить на тему  [ Сообщений: 2 ] 
Торрент файл
Размер: 6.92 GB • Зарегистрирован: 5 лет 4 месяца • Статус: Проверено
Скачан: 87 раз • Желающих скачать: 0 • Поблагодарили: 12 раз
 Раздают: 0  |  0 KB/s  ]   Качают: 0  |  0 KB/s  ] 
 Полного источника не было 2 года 10 месяцев 
Сообщения
 Добавлено: 2011-07-05 23:34
Аватара пользователя
Стаж: 6 лет 6 месяцев
Сообщений: 214
Спасибок: 10697
Игра без правил
Fair Game

Изображение

Год выпуска: 2010
Страна: США, ОАЭ
Слоган: «Жена. Мать. Шпион.»

Жанр: триллер, драма, биография
Продолжительность: 01:43:17
Перевод: Профессиональный (полное дублирование)

Режиссер: Даг Лайман
Сценарий: Джез Баттеруорт, Джон-Генри Баттерворт, Джозеф Уилсон, Валери Плэйм
Продюсер: Даг Лайман, Джанет Цукер, Джерри Цукер, Джез Баттеруорт, Акива Голдсман
Оператор: Даг Лайман
Композитор: Джон Пауэлл

В ролях: Наоми Уоттс, Шон Пенн, Александр Рахленко, Соня Дэвисон, Ванесса Чонг, Ананд Тивари, Дмитрий Курта, Стефани Чай, Майкл Келли, Сергей Быстрицкий, Ти Баррелл, Джессика Хехт
Дублёры: Александр Рахленко, Дмитрий Курта, Сергей Быстрицкий, Владимир Герасимов, Рудольф Панков, Никита Прозоровский
Бюджет: $22 000 000
Сборы в США: $9 540 691
Сборы в России: $34 983
Сборы в мире: $24 188 922

Мировая премьера: 20 мая 2010
Релиз на DVD: 7 июля 2011, «Парадиз Видео»
Релиз на Blu-ray: 28 июля 2011, «Парадиз Видео»
Описание: <div class="brand_words">Грязные интриги Белого дома, тайны политики президента Буша, сенсационные факты о войне в Ираке&#133; Один из самых громких политических скандалов США закручивается вокруг семьи посла Джона Уилсона и секретного агента Валери Плейм. Чтобы наказать бывшего дипломата, придавшего огласку секретным материалам, власти обвиняют его жену в шпионаже и угрожают расправой над семьей. Но Джо и Валери сломить невозможно, чтобы выжить, они готовят ответный удар.</div>
Изображение 6.90 (12 252) Изображение 6.404 (1 223)
MPAA: Изображение - Детям до 13 лет просмотр не желателен
Релиз группы: Изображение Раздача: Изображение
Изображение
Качество: DVD9 R5
Видео: PAL 16:9 (720x576) VBR
Аудио: Русский, английский (Dolby AC3, 6 ch), русский (Dolby AC3, 2 ch) 448 Kbps , 192 Kbps
Размер: 6.92 ГБ
NFO
Title:
Size: 6.92 Gb ( 7 258 764 KBytes ) - DVD-9
Enabled regions: 1, 2, 3, 4, 5, 6, 7, 8

VTS_01 :
Play Length: 01:43:17
Video: PAL 16:9 (720x576) VBR, Auto Pan&Scan
Audio:
Russian (Dolby AC3, 6 ch)
Russian (Dolby AC3, 2 ch)
English (Dolby AC3, 6 ch)
Subtitles:
Russian

VTS_02 :
Play Length: 00:00:11
Video: PAL 16:9 (720x576) VBR, Auto Pan&Scan
Audio:
Russian (Dolby AC3, 2 ch)

VTS_03 :
Play Length: 00:00:17
Video: PAL 4:3 (720x576) VBR
Audio:
Russian (Dolby AC3, 2 ch)

VTS_04 :
Play Length: 00:05:40
Video: PAL 4:3 (720x576) VBR
Audio:
Russian (Dolby AC3, 2 ch)

VTS_05 :
Play Length: 00:10:52
Video: PAL 16:9 (720x576) VBR, Auto Pan&Scan
Audio:
Russian (Dolby AC3, 2 ch)

Menu Video:
PAL 4:3 (720x576) VBR
Auto Pan&Scan, Auto Letterboxed
Menu Russian Language Unit :
Root Menu
Angle menu
Свернуть
MediaInfo
General
Complete name : E:\Temp\FullDisc\FAIR_GAME\VIDEO_TS\VTS_01_1.VOB
Format : MPEG-PS
File size : 1 024 MiB
Duration : 17mn 13s
Overall bit rate : 8 310 Kbps
Writing library : encoded by TMPGEnc (ver. 2.524.63.181)

Video
ID : 224 (0xE0)
Format : MPEG Video
Format version : Version 2
Format profile : Main@Main
Format settings, BVOP : Yes
Format settings, Matrix : Default
Duration : 17mn 13s
Bit rate mode : Variable
Bit rate : 7 057 Kbps
Width : 720 pixels
Height : 576 pixels
Display aspect ratio : 16:9
Frame rate : 25.000 fps
Standard : PAL
Color space : YUV
Chroma subsampling : 4:2:0
Bit depth : 8 bits
Compression mode : Lossy
Bits/(Pixel*Frame) : 0.681
Stream size : 870 MiB (85%)
Writing library : TMPGEnc 2.524.63.181

Audio #1
ID : 189 (0xBD)-128 (0x80)
Format : AC-3
Format/Info : Audio Coding 3
Mode extension : CM (complete main)
Muxing mode : DVD-Video
Duration : 17mn 13s
Bit rate mode : Constant
Bit rate : 448 Kbps
Channel(s) : 6 channels
Channel positions : Front: L C R, Side: L R, LFE
Sampling rate : 48.0 KHz
Bit depth : 16 bits
Compression mode : Lossy
Delay relative to video : 6ms
Stream size : 55.2 MiB (5%)

Audio #2
ID : 189 (0xBD)-129 (0x81)
Format : AC-3
Format/Info : Audio Coding 3
Mode extension : CM (complete main)
Muxing mode : DVD-Video
Duration : 17mn 13s
Bit rate mode : Constant
Bit rate : 192 Kbps
Channel(s) : 2 channels
Channel positions : Front: L R
Sampling rate : 48.0 KHz
Bit depth : 16 bits
Compression mode : Lossy
Delay relative to video : 6ms
Stream size : 23.7 MiB (2%)

Audio #3
ID : 189 (0xBD)-130 (0x82)
Format : AC-3
Format/Info : Audio Coding 3
Mode extension : CM (complete main)
Muxing mode : DVD-Video
Duration : 17mn 13s
Bit rate mode : Constant
Bit rate : 448 Kbps
Channel(s) : 6 channels
Channel positions : Front: L C R, Side: L R, LFE
Sampling rate : 48.0 KHz
Bit depth : 16 bits
Compression mode : Lossy
Delay relative to video : 6ms
Stream size : 55.2 MiB (5%)
Свернуть

"Знаете ли Вы, что..."
  • Изначально главные роли должны были исполнить Рассел Кроу и Николь Кидман.
Свернуть
"Скриншоты"

Изображение
Изображение
Изображение
Изображение
Изображение
Свернуть
Не в сети
Профиль  
 Добавлено: 2011-07-07 12:48 (спустя 1 день 13 часов)
Аватара пользователя
Стаж: 7 лет 3 месяца
Возраст: 34
Сообщений: 127
Ну и чууууууушшшшшшшшш!!!!!!!
Не в сети
Профиль  
Начать новую темуОтветить на тему  [ Сообщений: 2 ] 
Вы не можете начинать темы
Вы не можете отвечать на сообщения
Вы не можете редактировать свои сообщения
Вы не можете удалять свои сообщения