Правила форума

  • В этом разделе создание новых тем Запрещено.
  • Для создания новых тем пользуйтесь Корневым разделом DVD и HD фильмы.
Начать новую темуОтветить на тему  [ Сообщений: 3 ] 
Торрент файл
Размер: 7.63 GB • Зарегистрирован: 4 года 3 месяца • Статус: Проверено
Скачан: 15 раз • Желающих скачать: 0 • Поблагодарили: 7 раз
 Раздают: 0  |  0 KB/s  ]   Качают: 0  |  0 KB/s  ] 
 Полного источника не было 3 года 2 месяца 
Сообщения
 Добавлено: 2012-08-27 20:26
Top-releaser
Стаж: 4 года 11 месяцев
Сообщений: 311
Спасибок: 3510
Лайков: 2
Изображение

Иисус Христос Суперзвезда / Jesus Christ Superstar

Год выпуска: 1973
Страна: ИзображениеСША
Премьера: 7 августа 1973
Слоган: «And now, the movie......»
Жанр: Kриминальная комедия
Продолжительность:01:46:30
Перевод №1 :Авторский перевод АЛЕКСЕЯ МИХАЛЁВА
Cубтитры :русские (в стихах автор Pig on the wing с коррекциями Александрова И.В.), русские (в стихах автор Парыгин М.В.), русские (дословные), английские для людей с нарушениями слуха, испанские, французские

Режиссер: Норман Джюисон / Norman Jewison

В ролях:
Тед Нили /Ted Neeley/, Ивонн Эллимэн /Yvonne Elliman/, Бэрри Деннен /Barry Dennen/, Боб Бингэм /Bob Bingham/, Лэрри Т. Маршалл /Larry Marshall/, Джош Мостел /Josh Mostel/, Керт Ягджян /Kurt Yaghjian/, Карл Андерсон /Carl Anderson/, Пол Томас /Paul Thomas/, Пи Дугласс /Pi Douglass/, Ричард Орбах /Richard Orbach/, Роберт ЛюПон /Robert LuPone


Описание: Рок-опера Тима Райса и Эндрю Ллойда Уэббера была в свое время крупнейшим событием в моей жизни, а альбом стоял на одной полке с "The Beatles". Нет ничего удивительного в том, что, когда я посмотрел фильм, он меня разочаровал, так как у каждого, как и при прочтении книги, складывается свой визуальный ряд, который в моем случае создавался при помощи портвейна в темноте и наушниках. Летом 1996 года я пересмотрел фильм и отнесся к нему уже по-другому. Меня уже на раздражали танки, автобусы, я забыл о своих прежних ассоциациях, связанных с Булгаковым, я воспринял картину, ставшую культовой для поколений, такой, какая она есть. Для тех, кто ничего не знает об этом гениальном произведении, скажу, что речь идет о последних днях Христа (Тед Нили), поданных в жанровых рамках мьюзикла. Наряду с "Волосами" (Hair), картина по праву входит в золотой фонд мирового кино. Советую смотреть без перевода, имея под рукой либретто на русском, если вы не знаете английского. Слова: Тим Райс. (Иванов М.)


Примечание:точка перехода на второй слой присутствует

Бонусы:интервью с Тимом Райсом (Tim Rice), фотогалерея.

Изображение7.834(1 431)

Меню:Английское, адаптированное, статичное
Качество:DVD9 (Custom)
Формат:DVD-Video
Видео:NTSC 16:9 (720x480) VBR ~ 8900 Kbps
Аудио№1: Russian - 48 kHz, AC3, 2/0 (L,R) ch, ~ 192 kbps - Алексей Михалёв
Аудио№2: English - 48 kHz, AC3, 2/0 (L,R) ch, ~ 192 kbps
Аудио№3: Francais - 48 kHz, AC3, 2/0 (L,R) ch, ~ 192 kbps
Аудио№4: English - 48 kHz, AC3, 2/0 (L,R) ch, ~ 192 kbps - комментарий режиссёра
Раздача группы: Изображение

Используемый Софт
DVD Decrypter 3.5.4.0
VOB file Editor 0.6.0.0
delaycut 1, 2,
IFO-file editor 0.9.5.0
Adobe Audution 1.5
Sonic Foundry
Soft Encode 1.0
Sound Forge 9.0 9.0c
Sony Vegas 7.0e
VobBlanker 2,1,3,0
MuxMan 1.2.3
DVDRemake Pro 3.6.3
Свернуть


MediaInfo
General
Complete name : M:\EXCLUZIV -17\Иисус Христос - Суперзвезда [Jesus Christ Superstar](1973)\Jesus Christ Superstar [Norman Jewison](1973)\VIDEO_TS\VTS_01_1.VOB
Format : MPEG-PS
File size : 1 024 MiB
Duration : 16mn 4s
Overall bit rate : 8 910 Kbps

Video
ID : 224 (0xE0)
Format : MPEG Video
Format version : Version 2
Format profile : Main@Main
Format settings, BVOP : Yes
Format settings, Matrix : Default
Duration : 16mn 4s
Bit rate mode : Variable
Bit rate : 7 965 Kbps
Nominal bit rate : 9 800 Kbps
Width : 720 pixels
Height : 480 pixels
Display aspect ratio : 16:9
Frame rate : 29.970 fps
Standard : NTSC
Color space : YUV
Chroma subsampling : 4:2:0
Bit depth : 8 bits
Bits/(Pixel*Frame) : 0.769
Stream size : 915 MiB (89%)

Audio #1
ID : 128 (0x80)
Format : AC-3
Format/Info : Audio Coding 3
Mode extension : CM (complete main)
Duration : 16mn 3s
Bit rate mode : Constant
Bit rate : 192 Kbps
Channel(s) : 2 channels
Channel positions : Front: L R
Sampling rate : 48.0 KHz
Stream size : 22.1 MiB (2%)

Audio #2
ID : 129 (0x81)
Format : AC-3
Format/Info : Audio Coding 3
Format profile : Dolby Digital
Mode extension : CM (complete main)
Duration : 16mn 3s
Bit rate mode : Constant
Bit rate : 192 Kbps
Channel(s) : 2 channels
Channel positions : Front: L R
Sampling rate : 48.0 KHz
Stream size : 22.1 MiB (2%)

Audio #3
ID : 130 (0x82)
Format : AC-3
Format/Info : Audio Coding 3
Format profile : Dolby Digital
Mode extension : CM (complete main)
Duration : 16mn 3s
Bit rate mode : Constant
Bit rate : 192 Kbps
Channel(s) : 2 channels
Channel positions : Front: L R
Sampling rate : 48.0 KHz
Stream size : 22.1 MiB (2%)

Audio #4
ID : 131 (0x83)
Format : AC-3
Format/Info : Audio Coding 3
Format profile : Dolby Digital
Mode extension : CM (complete main)
Duration : 16mn 3s
Bit rate mode : Constant
Bit rate : 192 Kbps
Channel(s) : 2 channels
Channel positions : Front: L R
Sampling rate : 48.0 KHz
Stream size : 22.1 MiB (2%)

Text #1
ID : 32 (0x20)
Format : RLE
Format/Info : Run-length encoding

Text #2
ID : 33 (0x21)
Format : RLE
Format/Info : Run-length encoding

Text #3
ID : 34 (0x22)
Format : RLE
Format/Info : Run-length encoding

Text #4
ID : 35 (0x23)
Format : RLE
Format/Info : Run-length encoding

Text #5
ID : 36 (0x24)
Format : RLE
Format/Info : Run-length encoding

Text #6
ID : 37 (0x25)
Format : RLE
Format/Info : Run-length encoding
Свернуть


DVDInfo
Title:
Jesus Christ Superstar [Norman Jewison][1973)
Size:
7.63 Gb ( 8 002 466,00 Kbytes ) DVD9
Enabled regions: 1, 2, 3, 4, 5, 6, 7, 8

VTS_01 :
Play Length: 01:46:30
Video:
NTSC 16:9 (720x480) VBR ~ 8900.99 kbps avg
Auto Letterboxed
Audio:
Audio #1: AC3, 2/0 (L,R) ch, 192 kbps, Delay 0 mSec
Audio #2: AC3, 2/0 (L,R) ch, 192 kbps, Delay 0 mSec
Audio #3: AC3, 2/0 (L,R) ch, 192 kbps, Delay 0 mSec
Audio #4: AC3, 2/0 (L,R) ch, 192 kbps, Delay 0 mSec
"Subtitles(1) Russian, English, Espanol, Francais

Menus information:
Video:
NTSC 16:9 (720x480) VBR
Auto Pan&Scan
Audio: 0
Root Menu
Subpicture Menu
Audio Menu
Chapter (PTT) Menu
Свернуть


"Скриншоты меню"
Изображение
Изображение
Изображение
Изображение
Изображение
Свернуть

"Скриншоты"
Изображение
Изображение
Изображение
Свернуть
Не в сети
Профиль  
 Добавлено: 2012-08-27 21:03 (спустя 37 минут)
Аватара пользователя
Стаж: 5 лет 1 месяц
Возраст: 34
Сообщений: 1277
Лайков: 20
Перекодируй плиз, а? до 2-х Гегов в avi
Не в сети
Профиль  
 Добавлено: 2012-08-27 21:13 (спустя 9 минут)
Top-releaser
Стаж: 4 года 11 месяцев
Сообщений: 311
Спасибок: 3510
Лайков: 2

DIMDIMISH:

Перекодируй плиз, а? до 2-х Гегов в avi
Не умею :du_ma_et: :( :'( :par_don:
Не в сети
Профиль  
Начать новую темуОтветить на тему  [ Сообщений: 3 ] 
Вы не можете начинать темы
Вы не можете отвечать на сообщения
Вы не можете редактировать свои сообщения
Вы не можете удалять свои сообщения