Правила форума

  • В этом разделе создание новых тем Запрещено.
  • Для создания новых тем пользуйтесь Корневым разделом DVD и HD фильмы.
Начать новую темуОтветить на тему  [ Сообщений: 3 ] 
Торрент файл
Размер: 4.29 GB • Зарегистрирован: 5 лет 6 месяцев • Статус: Проверено
Скачан: 44 раза • Желающих скачать: 0 • Поблагодарили: 11 раз
 Раздают: 0  |  0 KB/s  ]   Качают: 0  |  0 KB/s  ] 
 Полного источника не было 3 года 2 месяца 
Сообщения
 Добавлено: 2011-06-08 21:15
Модератор
Аватара пользователя
Стаж: 8 лет 1 месяц
Возраст: 20
Сообщений: 32130
Спасибок: 98569
Лайков: 80
Изображение

Информаторы / The Informers


Год выпуска: 2008
Страна: Изображение США, Изображение Германия
Слоган: «Жадность - хорошо. Секс - просто. Молодость - вечна.»

Жанр: триллер, драма, криминал
Продолжительность: 01:33:48
Перевод: Профессиональный (многоголосый, закадровый) [лицензия]

Режиссер: Грегор Джордан
В ролях: Микки Рурк, Ким Бейсингер, Билли Боб Торнтон, Вайнона Райдер, Брэд Ренфро, Рис Иванс, Джон Фостер, Остин Николс, Эмбер Хёрд, Лу Тэйлор Пуччи
Бюджет: $18 000 000
Сборы в США: $300 000
Сборы в России: $30 034
Сборы в мире: $382 174

Мировая премьера: 5 ноября 2008
Релиз на DVD: 12 апреля 2011, «West Video»
Описание: Одна неделя из жизни в Лос-Анджелесе в 1983 году. Семь историй повествуют о ярких представителях той эпохи. Не смотря на разный социальный и материальный статус героев фильма, их связывает одинаковый распущенный и аморальный образ жизни. И неспособность осознать, что их «секс, наркотики и рок-н-ролл» неумолимо приведут к печальному концу.
Изображение
MPAA: Изображение - Лицам до 17 лет обязательно присутствие взрослого
Качество: DVD5 R5
Формат: DVD Video

Видео: PAL 16:9 (720x576)
Аудио: Russian / English (Dolby AC3, 6 ch)
Субтитры: Russian, Ukrainian
Релиз группы: Изображение
DVDInfo
Title: INFORMERS
Size: 4.29 Gb ( 4 500 326 KBytes ) - DVD-5
Enabled regions: 1, 2, 3, 4, 5, 6, 7, 8

VTS_01 :
  Play Length: 00:00:23
  Video: PAL 4:3 (720x576) VBR

VTS_02 :
  Play Length: 00:00:31
  Video: PAL 4:3 (720x576) VBR
  Audio:
      English (Dolby AC3, 6 ch)

VTS_03 :
  Play Length: 00:02:02
  Video: PAL 16:9 (720x576) VBR, Auto Letterboxed
  Audio:
      Russian (Dolby AC3, 6 ch)
      Russian (Dolby AC3, 6 ch)

VTS_04 :
  Play Length: 00:01:54
  Video: PAL 16:9 (720x576) VBR, Auto Letterboxed
  Audio:
      Russian (Dolby AC3, 2 ch)
      English (Dolby AC3, 2 ch)

VTS_05 :
  Play Length: 00:02:33
  Video: PAL 16:9 (720x576) VBR, Auto Letterboxed
  Audio:
      Russian (Dolby AC3, 2 ch)
      Russian (Dolby AC3, 2 ch)

VTS_06 :
  Play Length: 00:01:35
  Video: PAL 16:9 (720x576) VBR, Auto Letterboxed
  Audio:
      Russian (Dolby AC3, 2 ch)
      Russian (Dolby AC3, 2 ch)

VTS_07 :
  Play Length: 00:01:39
  Video: PAL 16:9 (720x576) VBR, Auto Letterboxed
  Audio:
      Russian (Dolby AC3, 2 ch)
      Russian (Dolby AC3, 2 ch)

VTS_08 :
  Play Length: 00:01:43
  Video: PAL 4:3 (720x576) VBR
  Audio:
      Russian (Dolby AC3, 2 ch)
      Russian (Dolby AC3, 2 ch)

VTS_09 :
  Play Length: 01:33:48
  Video: PAL 16:9 (720x576) VBR, Auto Pan&Scan, Auto Letterboxed
  Audio:
      Russian (Dolby AC3, 6 ch)
      English (Dolby AC3, 6 ch)
  Subtitles:
      Russian
      Ukrainian
Свернуть
MediaInfo
Общее
Полное имя : F:\Новинки 2011\Informatori.2008.DVD5\VIDEO_TS\VTS_09_1.VOB
Формат : MPEG-PS
Размер файла : 1024 Мбайт
Продолжительность : 26 м.
Общий поток : 5386 Кбит/сек
Видео
Идентификатор : 224 (0xE0)
Формат : MPEG Video
Версия формата : Version 2
Профиль формата : Main@Main
Параметр BVOP формата : Да
Параметр матрицы формата : По умолчанию
Продолжительность : 26 м.
Вид битрейта : Переменный
Битрейт : 4511 Кбит/сек
Номинальный битрейт : 9800 Кбит/сек
Ширина : 720 пикс.
Высота : 576 пикс.
Соотношение сторон : 16:9
Частота кадров : 25,000 кадр/сек
Стандарт вещания : PAL
Цветовое пространство : YUV
Подвыборка цветности : 4:2:0
Битовая глубина : 8 бит
Тип развёртки : Чересстрочная
Порядок развёртки : Верхнее поле первое
Метод сжатия : С потерями
Бит/(Пиксели*Кадры) : 0.435
Размер потока : 858 Мбайт (84%)
Аудио #1
Идентификатор : 189 (0xBD)-128 (0x80)
Формат : AC-3
Формат/Информация : Audio Coding 3
Расширение режима : CM (complete main)
Режим смешивания : DVD-Video
Продолжительность : 26 м.
Вид битрейта : Постоянный
Битрейт : 384 Кбит/сек
Канал(ы) : 6 канала(ов)
Расположение каналов : Front: L C R, Side: L R, LFE
Частота : 48,0 КГц
Битовая глубина : 16 бит
Метод сжатия : С потерями
Размер потока : 73,0 Мбайт (7%)
Аудио #2
Идентификатор : 189 (0xBD)-129 (0x81)
Формат : AC-3
Формат/Информация : Audio Coding 3
Расширение режима : CM (complete main)
Режим смешивания : DVD-Video
Продолжительность : 26 м.
Вид битрейта : Постоянный
Битрейт : 384 Кбит/сек
Канал(ы) : 6 канала(ов)
Расположение каналов : Front: L C R, Side: L R, LFE
Частота : 48,0 КГц
Битовая глубина : 16 бит
Метод сжатия : С потерями
Размер потока : 73,0 Мбайт (7%)
Свернуть
Скриншоты
Изображение

Изображение

Изображение

Изображение
Свернуть
Не в сети
Профиль  
 Добавлено: 2011-06-09 13:25 (спустя 16 часов)
Аватара пользователя
Стаж: 8 лет 6 месяцев
Возраст: 26
Сообщений: 104
Спасибок: 357
Лайков: 1
Сборы просто не реальные :-D
Не в сети
Профиль  
 Добавлено: 2011-06-11 12:28 (спустя 1 день 23 часа)
Аватара пользователя
Стаж: 7 лет 11 месяцев
Сообщений: 19
Фильм должен называться по русски не информаторы, а "Предупредители", или "Предостережение". Смысл в том, если я правильно понял авторов: "Будете принимать наркотики и трахаться как животные, то все сдохнете." Это моё личное мнение, я могу ошибаться.
Не в сети
Профиль  
Начать новую темуОтветить на тему  [ Сообщений: 3 ] 
Вы не можете начинать темы
Вы не можете отвечать на сообщения
Вы не можете редактировать свои сообщения
Вы не можете удалять свои сообщения