Правила форума

  • В этом разделе создание новых тем Запрещено.
  • Для создания новых тем пользуйтесь Корневым разделом DVD и HD фильмы.
Начать новую темуОтветить на тему  [ Сообщений: 5 ] 
Торрент файл
Размер: 5.86 GB • Зарегистрирован: 5 лет 4 месяца • Статус: Проверено
Скачан: 349 раз • Желающих скачать: 0 • Поблагодарили: 52 раза
 Раздают: 0  |  0 KB/s  ]   Качают: 0  |  0 KB/s  ] 
 Полного источника не было 2 месяца 8 дней 
Сообщения
 Добавлено: 2011-07-27 06:09
Аватара пользователя
Стаж: 6 лет 6 месяцев
Сообщений: 214
Спасибок: 10697
Ирландец
Kill the Irishman

Изображение

Год выпуска: 2010
Страна: США
Слоган: «Based on the true story of Danny Greene the man the mob couldn't kill»

Жанр: триллер, криминал, биография
Продолжительность: 01:41:51
Перевод: Профессиональный (многоголосый, закадровый)

Режиссер: Джонатан Хенсли
В ролях: Рэй Стивенсон, Винсент Д’Онофрио, Вэл Килмер, Линда Карделлини, Кристофер Уокен, Тони Дарроу, Роберт Дави, Фионнула Флэнаган, Боб Гантон, Джейсон Батлер Харнер, Винни Джонс
Сборы в США: $1 176 256

Мировая премьера: 15 мая 2010
Релиз на DVD: 21 июля 2011, «Новый Диск»
Описание:Фильм основан на реальных событиях из жизни гангстера Дэнни Грина, на его взлетах и падениях.
Изображение 7.1/10 (8,144 votes)
Изображение 7.034 (919)
MPAA: Изображение - Лицам до 17 лет обязательно присутствие взрослого

Релиз группы: Изображение Раздача: Изображение
Изображение
Качество: DVD9
Формат: DVD Video
Видео: PAL 16:9 (720x576)
Аудио: Russian / English (Dolby AC3, 6 ch)
Субтитры: нет
Размер: 5.86 GB
Дополнительно: Анонсы
NFO
Title:
Size: 5.86 Gb ( 6 140 520 KBytes ) - DVD-9
Enabled regions: 1, 2, 3, 4, 5, 6, 7, 8

VTS_01 :
Play Length: 00:00:15
Video: PAL 4:3 (720x576) VBR
Audio:
Not specified (Dolby AC3, 2 ch)

VTS_02 :
Play Length: 00:00:08
Video: PAL 16:9 (720x576) VBR, Auto Pan&Scan
Audio:
Not specified (Dolby AC3, 2 ch)

VTS_03 :
Play Length: 00:01:47
Video: PAL 16:9 (720x576) VBR, Auto Pan&Scan
Audio:
Not specified (Dolby AC3, 2 ch)

VTS_04 :
Play Length: 00:01:12
Video: PAL 16:9 (720x576) VBR, Auto Pan&Scan
Audio:
Not specified (LinearPCM, 2 ch)

VTS_05 :
Play Length: 00:01:30
Video: PAL 16:9 (720x576) VBR, Auto Pan&Scan
Audio:
Not specified (Dolby AC3, 2 ch)

VTS_06 :
Play Length: 00:02:34
Video: PAL 16:9 (720x576) VBR, Auto Pan&Scan
Audio:
Not specified (Dolby AC3, 2 ch)

VTS_07 :
Play Length: 00:02:03
Video: PAL 16:9 (720x576) VBR, Auto Pan&Scan
Audio:
Not specified (Dolby AC3, 2 ch)

VTS_08 :
Play Length: 00:01:46
Video: PAL 16:9 (720x576) VBR, Auto Pan&Scan
Audio:
Not specified (Dolby AC3, 2 ch)

VTS_09 :
Play Length: 00:02:04
Video: PAL 16:9 (720x576) VBR, Auto Pan&Scan
Audio:
Not specified (Dolby AC3, 2 ch)

VTS_10 :
Play Length: 01:41:51
Video: PAL 16:9 (720x576) VBR, Auto Pan&Scan
Audio:
Russian (Dolby AC3, 6 ch)
English (Dolby AC3, 6 ch)
Свернуть
Cкрытый текст
General
Complete name : D:\Temp\FullDisc\IRISHMAN\VIDEO_TS\VTS_10_2.VOB
Format : MPEG-PS
File size : 1 024 MiB
Duration : 18mn 49s
Overall bit rate : 7 604 Kbps

Video
ID : 224 (0xE0)
Format : MPEG Video
Format version : Version 2
Format profile : Main@Main
Format settings, BVOP : Yes
Format settings, Matrix : Default
Format settings, GOP : M=3, N=12
Duration : 18mn 49s
Bit rate mode : Variable
Bit rate : 6 556 Kbps
Nominal bit rate : 7 500 Kbps
Width : 720 pixels
Height : 576 pixels
Display aspect ratio : 16:9
Frame rate : 25.000 fps
Standard : PAL
Color space : YUV
Chroma subsampling : 4:2:0
Bit depth : 8 bits
Scan type : Progressive
Compression mode : Lossy
Bits/(Pixel*Frame) : 0.632
Stream size : 883 MiB (86%)

Audio #1
ID : 189 (0xBD)-128 (0x80)
Format : AC-3
Format/Info : Audio Coding 3
Mode extension : CM (complete main)
Muxing mode : DVD-Video
Duration : 18mn 49s
Bit rate mode : Constant
Bit rate : 448 Kbps
Channel(s) : 6 channels
Channel positions : Front: L C R, Side: L R, LFE
Sampling rate : 48.0 KHz
Bit depth : 16 bits
Compression mode : Lossy
Delay relative to video : -608ms
Stream size : 60.3 MiB (6%)

Audio #2
ID : 189 (0xBD)-129 (0x81)
Format : AC-3
Format/Info : Audio Coding 3
Mode extension : CM (complete main)
Muxing mode : DVD-Video
Duration : 18mn 49s
Bit rate mode : Constant
Bit rate : 448 Kbps
Channel(s) : 6 channels
Channel positions : Front: L C R, Side: L R, LFE
Sampling rate : 48.0 KHz
Bit depth : 16 bits
Compression mode : Lossy
Delay relative to video : -608ms
Stream size : 60.3 MiB (6%)
Свернуть
"Скриншоты"

Изображение
Изображение
Изображение
Изображение
Изображение
Свернуть
Не в сети
Профиль  
 Добавлено: 2011-08-01 13:31 (спустя 5 дней)
Стаж: 6 лет 1 месяц
Сообщений: 3
Лучший фильм , что я смотрел за последние месяцы))
Не в сети
Профиль  
 Добавлено: 2011-08-05 00:11 (спустя 3 дня)
Стаж: 7 лет 2 месяца
Сообщений: 81
Хороший фильм.
Субботним вечером посмотреть можно.
Не в сети
Профиль  
 Добавлено: 2011-10-06 21:51 (спустя 2 месяца 1 день)
Стаж: 7 лет 4 месяца
Сообщений: 25
Спасибок: 224
Смотрите не пожалеете.
Не в сети
Профиль  
 Добавлено: 2011-12-03 11:18 (спустя 1 месяц 27 дней)
Пользователь забанен
Стаж: 7 лет
Сообщений: 9
:-ok-:
Не в сети
Профиль  
Начать новую темуОтветить на тему  [ Сообщений: 5 ] 
Вы не можете начинать темы
Вы не можете отвечать на сообщения
Вы не можете редактировать свои сообщения
Вы не можете удалять свои сообщения