Правила форума

  • В этом разделе создание новых тем Запрещено.
  • Для создания новых тем пользуйтесь Корневым разделом DVD и HD фильмы.
Начать новую темуОтветить на тему  [ Сообщений: 6 ] 
Торрент файл
Размер: 3.58 GB • Зарегистрирован: 4 года 8 месяцев • Статус: Проверено
Скачан: 112 раз • Желающих скачать: 0 • Поблагодарили: 17 раз
 Раздают: 0  |  0 KB/s  ]   Качают: 0  |  0 KB/s  ] 
 Полного источника не было 1 год 8 месяцев 
Сообщения
 Добавлено: 2012-03-28 10:13
DVD Release Group
Аватара пользователя
Стаж: 7 лет 1 месяц
Сообщений: 3563
Спасибок: 247494
Лайков: 1020
Искатели могил

Grave Encounters


Изображение


Год выпуска: 2011
Страна: Канада / Digital Interference Productions, Twin Engine Films
Жанр: Ужасы
Продолжительность: 01:29:33
Перевод: Профессиональный (многоголосый)
Субтитры: Украинские
Режиссер: Вишес Бразерс
В ролях: Шон Роджерсон, Хуан Ридингер, МакКензи Грэй, Артур Корбер, Мишель Камминс, Луис Хавьер, Шоун МакДональд, Мервин Мондесер, Боб Рафи и др

Описание: «Искатели» — телевизионное шоу охотников за привидениями. Во главе с Лэнсом Прэстоном они соглашаются провести ночь в психиатрической больнице, легенды о странном феномене которой, ходят давно.
КиноПоиск: 5.94 (1286)
IMDb: 6.1 (6375)
Дополнительно: Нет
Качество: DVD5
Формат: DVD Video
Видео кодек: MPEG2
Аудио кодек: AC3
Видео: 720x576 25fps 5557Kbps
Аудио: 48kHz 6ch 384Kbps
"MediaInfo"

Формат : MPEG-PS
Размер файла : 1024 Мбайт
Продолжительность : 23 м.
Режим общего битрейта : Переменный
Общий поток : 6061 Кбит/сек

Видео
Идентификатор : 224 (0xE0)
Формат : MPEG Video
Версия формата : Version 2
Профиль формата : Main@Main
Параметр BVOP формата : Да
Параметр матрицы формата : Выборочная
Продолжительность : 23 м.
Вид битрейта : Переменный
Битрейт : 5557 Кбит/сек
Максимальный битрейт : 8000 Кбит/сек
Ширина : 720 пикселей
Высота : 576 пикселей
Соотношение сторон : 16:9
Частота кадров : 25,000 кадров/сек
Стандарт вещания : PAL
Цветовое пространство : YUV
Субдискретизация насыщенности : 4:2:0
Битовая глубина : 8 бит
Тип развёртки : Чересстрочная
Порядок развёртки : Верхнее поле первое
Метод сжатия : С потерями
Бит/(Пиксели*Кадры) : 0.536
Размер потока : 939 Мбайт (92%)

Аудио
Идентификатор : 189 (0xBD)-128 (0x80)
Формат : AC-3
Формат/Информация : Audio Coding 3
Расширение режима : CM (complete main)
Режим смешивания : DVD-Video
Продолжительность : 23 м.
Вид битрейта : Постоянный
Битрейт : 384 Кбит/сек
Каналы : 6 каналов
Расположение каналов : Front: L C R, Side: L R, LFE
Частота : 48,0 КГц
Битовая глубина : 16 бит
Метод сжатия : С потерями
Размер потока : 64,9 Мбайт (6%)

Текст
Идентификатор : 189 (0xBD)-32 (0x20)
Формат : RLE
Формат/Информация : Run-length encoding
Режим смешивания : DVD-Video

Меню
Свернуть

"Скриншоты"

Изображение
Изображение
Изображение
Изображение
Изображение
Изображение
Изображение
Изображение
Изображение
Изображение
Изображение
Свернуть

Раздача группы:
Изображение
Не в сети
Профиль  
 Добавлено: 2012-03-28 19:02 (спустя 8 часов)
Аватара пользователя
Стаж: 7 лет 4 месяца
Возраст: 23
Сообщений: 46
Спасибок: 61
Лайков: 2
Охрененный фильм всем советую, единственное что раздражает, это то ,что снимали на камеру от руки(Ну вы поняли о чем я) :)
Не в сети
Профиль  
 Добавлено: 2012-03-28 20:39 (спустя 1 час 36 минут)
Аватара пользователя
Стаж: 6 лет 9 месяцев
Возраст: 39
Сообщений: 24
Что,прям страаашно? :bra_vo:
Не в сети
Профиль  
 Добавлено: 2012-03-28 20:57 (спустя 17 минут)
Стаж: 5 лет 3 месяца
Сообщений: 150
Лайков: 2
Я давненько не смотрел такой туфтени!Фильм прям с тв3!Смотрел и ржал.

Добавлено спустя 49 секунд:
Не кому не советую!
Не в сети
Профиль  
 Добавлено: 2012-03-28 21:12 (спустя 15 минут)
Аватара пользователя
Стаж: 6 лет 11 месяцев
Сообщений: 167
Да и я что пере хотел его скачивать ..
Не в сети
Профиль  
 Добавлено: 2013-08-22 21:29 (спустя 1 год 4 месяца)
Аватара пользователя
Стаж: 7 лет 5 месяцев
Возраст: 34
Сообщений: 241
Спасибок: 1
Лайков: 2
:co_ol:
Не в сети
Профиль  
Начать новую темуОтветить на тему  [ Сообщений: 6 ] 
Вы не можете начинать темы
Вы не можете отвечать на сообщения
Вы не можете редактировать свои сообщения
Вы не можете удалять свои сообщения