Правила форума

  • В этом разделе создание новых тем Запрещено.
  • Для создания новых тем пользуйтесь Корневым разделом DVD и HD фильмы.
Начать новую темуОтветить на тему  [ Сообщений: 2 ] 
Торрент файл
Размер: 7.16 GB • Зарегистрирован: 5 лет 6 месяцев • Статус: Проверено
Скачан: 23 раза • Желающих скачать: 0 • Поблагодарили: 5 раз
 Раздают: 0  |  0 KB/s  ]   Качают: 0  |  0 KB/s  ] 
 Полного источника не было 3 года 2 месяца 
Сообщения
 Добавлено: 2011-05-28 17:44
Аватара пользователя
Стаж: 7 лет
Возраст: 30
Сообщений: 507
Спасибок: 1931
Железная хватка / True Grit

«Punishment comes one way or another»

Изображение
Год выпуска: 2010
Страна: США, Paramount Pictures
Жанр: Драматичный вестерн
Продолжительность: 01:50:13
Перевод: профессиональный (дублированный), авторский одноголосый (Гаврилов)
Субтитры: английские

Режиссер: Итэн Коэн / Ethan Coen, Джоэл Коэн / Joel Coen
Сценарий: Джоэл Коэн / Joel Coen, Итэн Коэн / Ethan Coen, Чарльз Портис / Charles Portis (рассказ)
Продюсер: Итэн Коэн / Ethan Coen, Джоэл Коэн / Joel Coen, Скотт Рудин / Scott Rudin
Оператор: Роджер Дикинс / Roger Deakins
Композитор: Картер Бёруэлл / Carter Burwell
Художник: Джесс Гончор / Jess Gonchor, Стефан Дешан / Stefan Dechant, Кристи Уилсон / Christina Ann Wilson
Монтаж: Итэн Коэн / Ethan Coen, Джоэл Коэн / Joel Coen

В ролях: Джефф Бриджес (Rooster Cogburn), Хейли Стайнфелд (Mattie Ross), Мэтт Дэймон (LaBoeuf), Джош Бролин (Tom Chaney), Бэрри Пеппер (Lucky Ned Pepper), Дэкин Мэтьюз (Col. Stonehill), Ярлат Конрой (Undertaker), Пол Рэй (Emmett Quincy), Домналл Глисон (Moon), Элизабет Марвел (40-Year-Old Mattie)
Дублёры: Алексей Колган (Rooster Cogburn), Маша Иващенко (Mattie Ross), Василий Дахненко (LaBoeuf), Владимир Зайцев (Tom Chaney), Вадим Медведев (Lucky Ned Pepper), Борис Быстров (Col. Stonehill), Василий Стоноженко (Undertaker), Борис Токарев (Emmett Quincy),Даниил Эльдаров (Moon), Елена Борзунова (40-Year-Old Mattie)

Описание: В этом фильме рассказывается история 14-летней девочки, стареющего судебного пристава Рустера Когберна и ещё одного законника. Вместе они идут по следам убийцы отца девочки, которые ведут во враждебную индейскую территорию.
Изображение : 7.790 (9 148) Изображение : 8.0 (57 439)
Мировая премьера: 14 декабря 2010
Премьера в России: 10 февраля 2011, «Централ Партнершип»
Бюджет: $38 000 000
Возрастной рейтинг MPAA: PG-13 - Детям до 13 лет просмотр не желателен
Дополнительная информация: сделано Goldtwait из Blu-ray (43.81 Гб) [NTSC 16:9]
Сжато: программой Canopus ProCoder

Раздача : Изображение

Качество: DVD9 (custom) [SAMPLE]
Формат: DVD Video
Видео кодек: MPEG2
Аудио кодек: AC3 (Dolby Digital)
Видео: NTSC 16:9 (720x480) VBR Auto Letterboxed
Аудио #1: AC3, 3/2+LFE ch, 448Kbps - Русский профессиональный (дублированный)
Аудио #2: AC3, 2 ch, 192Kbps - Русский авторский одноголосый (Гаврилов)
Аудио #3: AC3, 3/2+LFE ch, 448Kbps - Английский (язык оригинала)
Субтитры: английские
"DVDInfo"
Title: True Grit.BDDVD9.[DVD Release Group]
Size: 7.16 Gb ( 7 513 030,00 KBytes ) - DVD-9
Enabled regions: 1, 2, 3, 4, 5, 6, 7, 8

VTS_01 :
Play Length: 01:50:13
Video: NTSC 16:9 (720x480) VBR, Auto Letterboxed
Audio:
Russian (Dolby AC3, 6 ch)
Russian (Dolby AC3, 2 ch)
English (Dolby AC3, 6 ch)
Subtitles:
English
Свернуть
"MediaInfo"
Общее
Полное имя : E:\Видео\Фильмы\True Grit.BDDVD9.[DVD Release Group]\VTS_01_2.VOB
Формат : MPEG-PS
Размер файла : 1024 Мбайт
Продолжительность : 15 м.
Общий поток : 9347 Кбит/сек

Видео
Идентификатор : 224 (0xE0)
Формат : MPEG Video
Версия формата : Version 2
Профиль формата : Main@Main
Параметр BVOP формата : Да
Параметр матрицы формата : По умолчанию
Параметры GOP формата : M=3, N=12
Продолжительность : 15 м.
Вид битрейта : Переменный
Битрейт : 8073 Кбит/сек
Номинальный битрейт : 8500 Кбит/сек
Ширина : 720 пикс.
Высота : 480 пикс.
Соотношение сторон : 16:9
Частота кадров : 23,976 кадр/сек
Стандарт вещания : NTSC
Цветовое пространство : YUV
Подвыборка цветности : 4:2:0
Битовая глубина : 8 бит
Тип развёртки : Прогрессивная
Порядок развёртки : 2:3 Pulldown
Метод сжатия : С потерями
Бит/(Пиксели*Кадры) : 0.974
Размер потока : 884 Мбайт (86%)

Аудио #1
Идентификатор : 189 (0xBD)-128 (0x80)
Формат : AC-3
Формат/Информация : Audio Coding 3
Расширение режима : CM (complete main)
Режим смешивания : DVD-Video
Продолжительность : 15 м.
Вид битрейта : Постоянный
Битрейт : 448 Кбит/сек
Канал(ы) : 6 канала(ов)
Расположение каналов : Front: L C R, Side: L R, LFE
Частота : 48,0 КГц
Битовая глубина : 16 бит
Метод сжатия : С потерями
Задержка видео : -334 мс.
Размер потока : 49,1 Мбайт (5%)

Аудио #2
Идентификатор : 189 (0xBD)-129 (0x81)
Формат : AC-3
Формат/Информация : Audio Coding 3
Расширение режима : CM (complete main)
Режим смешивания : DVD-Video
Продолжительность : 15 м.
Вид битрейта : Постоянный
Битрейт : 192 Кбит/сек
Канал(ы) : 2 канала(ов)
Расположение каналов : Front: L R
Частота : 48,0 КГц
Битовая глубина : 16 бит
Метод сжатия : С потерями
Задержка видео : -238 мс.
Размер потока : 21,0 Мбайт (2%)

Аудио #3
Идентификатор : 189 (0xBD)-130 (0x82)
Формат : AC-3
Формат/Информация : Audio Coding 3
Расширение режима : CM (complete main)
Режим смешивания : DVD-Video
Продолжительность : 15 м.
Вид битрейта : Постоянный
Битрейт : 448 Кбит/сек
Канал(ы) : 6 канала(ов)
Расположение каналов : Front: L C R, Side: L R, LFE
Частота : 48,0 КГц
Битовая глубина : 16 бит
Метод сжатия : С потерями
Задержка видео : -334 мс.
Размер потока : 49,1 Мбайт (5%)

Меню
Формат: DVD-Video
Свернуть
"Используемый софт"
видео
Canopus ProCoder - конвертация видео
AviSynth - обработка видео
DGAVCDec - индексирование

програмы для разборки/сборки ДВД
PgcDemux - демукс DVD
VirtualDub, tsMuxerGUI – работа с исходником
MuxMan - сборка видео

работа со звуком
Tranzcode - разборка оригинальной дорожки
Sonic Soundry Forge - сборка АС3 дорожки
DelayCut - синхронизация звука

работа с меню и реавторинг
DVDLabPro, Фотошоп - работа с меню
DVDReMakePro - реавторинг диска
Свернуть
"Скриншоты"
"Скриншоты меню"
Изображение

Изображение

Изображение
Свернуть
"Скриншоты фильма"
Изображение

Изображение

Изображение

Изображение

Изображение
Свернуть
Свернуть
"Знаете ли вы, что..."
  • Майкл Бьен проходил пробы на роль Нэда Пэппера.
  • Джефф Бриджес и Джош Бролин сыграли Дикого Билла Хикока в «Диком Билле» (1995) и «Молодых наездниках» (1989) соответственно.
  • Один из немногих фильмов, спродюссированный Стивеном Спилбергом, в начале которого не появляется заставка компании «Amblin Entertainment» или «DreamWorks Pictures».
  • В «Настоящем мужестве» (1969) Рустер Когберн носит повязку на левом глазе. В ремейке повязка надета на правый глаз.
  • Рустеру Когберну около 40 лет, однако и Джону Уэйну и Джеффу Бриджесу было за шестьдесят, когда они сыграли роль.
  • Дж. К. Симмонс озвучил Нобла Дэггетта, адвоката Мэтти.
Свернуть


Последний раз редактировалось Vitaly2110 2013-05-03 11:01, всего редактировалось 1 раз.
Не в сети
Профиль  
 Добавлено: 2011-05-29 10:18 (спустя 16 часов)
Аватара пользователя
Стаж: 8 лет 6 месяцев
Возраст: 38
Сообщений: 1674
Спасибок: 16599
Лайков: 5
Господин Goldtwait как и обещал - сделал. Великолепно сделал (если не считать отсутствие русских субтитров).
Есть возможность сравнить с лицензионным релизом, и сравнение явно не в пользу последнего - как обычно - тяп-ляп и в продажу...
А фильм великолепен.
Спасибо. Изображение
Не в сети
Профиль  
Начать новую темуОтветить на тему  [ Сообщений: 2 ] 
Вы не можете начинать темы
Вы не можете отвечать на сообщения
Вы не можете редактировать свои сообщения
Вы не можете удалять свои сообщения