Правила форума

  • В этом разделе создание новых тем Запрещено.
  • Для создания новых тем пользуйтесь Корневым разделом DVD и HD фильмы.
Начать новую темуОтветить на тему  [ Сообщений: 2 ] 
Торрент файл
Размер: 6.42 GB • Зарегистрирован: 5 лет 5 месяцев • Статус: Проверено
Скачан: 51 раз • Желающих скачать: 0 • Поблагодарили: 8 раз
 Раздают: 0  |  0 KB/s  ]   Качают: 0  |  0 KB/s  ] 
 Полного источника не было 2 года 6 месяцев 
Сообщения
 Добавлено: 2011-06-12 01:18
Аватара пользователя
Стаж: 5 лет 6 месяцев
Возраст: 30
Сообщений: 353
Спасибок: 7455
Железная хватка / True Grit

Изображение


Год выпуска: 2010
Страна: США (Paramount Pictures, Skydance Productions, Scott Rudin Productions)
Слоган: «Punishment comes one way or another»
Жанр: драма, приключения, вестерн
Продолжительность: 01:46:09
Перевод: Профессиональный (дубляж)
Дублеры: Алексей Колган, Маша Иващенко, Василий Дахненко, Владимир Зайцев, Вадим Медведев + Профессиональный (дубляж) + Оригинальная звуковая дорожка
Субтитры: Русские, Английские, украинские

Режиссёр: Итэн Коэн, Джоэл Коэн / Ethan Coen, Joel Coen
Сценарист: Джоэл Коэн, Итэн Коэн, Чарльз Портис
Продюсер: Итэн Коэн, Джоэл Коэн, Скотт Рудин
Оператор: Роджер Дикинс
Композитор: Картер Бёруэлл
В ролях: Джефф Бриджес, Мэтт Дэймон, Джош Бролин, Хейли Стайнфелд, Бэрри Пеппер, Дэкин Мэтьюз, Ярлат Конрой, Пол Рэй, Домналл Глисон, Элизабет Марвел

Описание: В этом фильме рассказывается история 14-летней девочки, стареющего судебного пристава Рустера Когберна и ещё одного законника. Вместе они идут по следам убийцы отца девочки, которые ведут во враждебную индейскую территорию.

Доп.информация: Железная хватка Мэтти, От турнира до лосни - одежда в стиле 1880-х, Воссоздание Фрот-Смита Актерский состав

Рейтинг MPAA: Рейтинг PG-13 (Дети до 13 лет допускаются на фильм только с родителями)
Мировая премьера: 14 декабря 2010
Премьера в России: 10 февраля 2011, «Централ Партнершип»
Бюджет: $38 000 000
Кассовые сборы: + $78 200 296 = $249 250 624

Изображение Изображение Изображение

Качество: DVD9 R5
Формат: DVD Video
Видео кодек: MPEG2
Аудио кодек: AC3 (Dolby Digital)
Видео: PAL 16:9 (720x576(0.540)) MPEG Video,25,000 кадр/сек, 5600 Кбит/сек
Аудио #1: Russian (Dolby AC3, 6 ch) 448 Кбит/сек, 48,0 КГц [Профессиональный (дубляж)]
Аудио #2: Ukrainian (Dolby AC3, 6 ch) 448 Кбит/сек, 48,0 КГц [Профессиональный (дубляж)]
Аудио #3: English (Dolby AC3, 6 ch) 448 Кбит/сек, 48,0 КГц [Оригинальная звуковая дорожка]
Субтитры: Русские, Английские, украинские

"DVDInfo"
Title: Мой диск
Size: 7.42 Gb ( 7 782 728 KBytes ) - DVD-9
Enabled regions: 1, 2, 3, 4, 5, 6, 7, 8

VTS_01 :
Play Length:
Video: PAL 4:3 (720x576) VBR

VTS_02 :
Play Length: 00:00:11
Video: PAL 4:3 (720x576) VBR
Subtitles:
Not specified

VTS_03 :
Play Length:
Video: PAL 4:3 (720x576) VBR
Audio:
Not specified (Dolby AC3, 2 ch)
Subtitles:
Not specified
Not specified
Not specified
Not specified
Not specified
Not specified
Not specified
Not specified

VTS_04 :
Play Length:
Video: PAL 16:9 (720x576) VBR, Auto Pan&Scan

VTS_05 :
Play Length:
Video: PAL 16:9 (720x576) VBR, Auto Pan&Scan
Audio:
English (Dolby AC3, 2 ch)
Subtitles:
English
Russian
Ukrainian

VTS_06 :
Play Length:
Video: PAL 16:9 (720x576) VBR, Auto Pan&Scan
Audio:
English (Dolby AC3, 2 ch)
Subtitles:
English
Russian
Ukrainian

VTS_07 :
Play Length: 00:00:03+00:04:59+00:07:41+00:10:53+00:05:04
Video: PAL 16:9 (720x576) VBR, Auto Pan&Scan
Audio:
English (Dolby AC3, 2 ch)
Subtitles:
English
Russian
Ukrainian

VTS_08 :
Play Length:
Video: PAL 16:9 (720x576) VBR, Auto Pan&Scan
Audio:
English (Dolby AC3, 2 ch)
Subtitles:
English
Russian
Ukrainian

VTS_09 :
Play Length:
Video: PAL 16:9 (720x576) VBR, Auto Pan&Scan
Audio:
English (Dolby AC3, 2 ch)
Subtitles:
English
Russian
Ukrainian

VTS_10 :
Play Length:
Video: PAL 16:9 (720x576) VBR, Auto Pan&Scan
Audio:
English (Dolby AC3, 2 ch)
Subtitles:
English
Russian
Ukrainian

VTS_11 :
Play Length:
Video: PAL 16:9 (720x576) VBR, Auto Pan&Scan
Audio:
English (Dolby AC3, 6 ch)
Russian (Dolby AC3, 6 ch)
Ukrainian (Dolby AC3, 6 ch)
Subtitles:
English
Russian
Ukrainian
Russian
Ukrainian

VTS_12 :
Play Length:
Video: PAL 16:9 (720x576) VBR, Auto Pan&Scan
Audio:
English (Dolby AC3, 6 ch)
Russian (Dolby AC3, 6 ch)
Ukrainian (Dolby AC3, 6 ch)
Subtitles:
English
Russian
Ukrainian
Russian
Ukrainian

VTS_13 :
Play Length:
Video: PAL 16:9 (720x576) VBR, Auto Pan&Scan
Audio:
English (Dolby AC3, 6 ch)
Russian (Dolby AC3, 6 ch)
Ukrainian (Dolby AC3, 6 ch)
Subtitles:
English
Russian
Ukrainian
Russian
Ukrainian

VTS_14 :
Play Length: 00:00:11+01:45:48+00:00:01
Video: PAL 16:9 (720x576) VBR, Auto Pan&Scan
Audio:
English (Dolby AC3, 6 ch)
Russian (Dolby AC3, 6 ch)
Ukrainian (Dolby AC3, 6 ch)
Subtitles:
English
Russian
Ukrainian
Russian
Ukrainian

VTS_15 :
Play Length:
Video: PAL 16:9 (720x576) VBR, Auto Pan&Scan
Audio:
English (Dolby AC3, 6 ch)
Russian (Dolby AC3, 6 ch)
Ukrainian (Dolby AC3, 6 ch)
Subtitles:
English
Russian
Ukrainian
Russian
Ukrainian

VTS_16 :
Play Length:
Video: PAL 16:9 (720x576) VBR, Auto Pan&Scan
Audio:
English (Dolby AC3, 6 ch)
Russian (Dolby AC3, 6 ch)
Ukrainian (Dolby AC3, 6 ch)
Subtitles:
English
Russian
Ukrainian
Russian
Ukrainian

VTS_17 :
Play Length:
Video: PAL 16:9 (720x576) VBR, Auto Pan&Scan
Свернуть

"MediaInfo"
Общее
Полное имя : F:\Новинки 2011\Zheleznaja.hvatka.2010.D.DVD9\VIDEO_TS\VTS_14_2.VOB
Формат : MPEG-PS
Размер файла : 1024 Мбайт
Продолжительность : 20 м.
Общий поток : 7085 Кбит/сек

Видео
Идентификатор : 224 (0xE0)
Формат : MPEG Video
Версия формата : Version 2
Профиль формата : Main@Main
Параметр BVOP формата : Да
Параметр матрицы формата : По умолчанию
Параметры GOP формата : M=3, N=12
Продолжительность : 20 м.
Вид битрейта : Переменный
Битрейт : 5600 Кбит/сек
Номинальный битрейт : 9800 Кбит/сек
Ширина : 720 пикс.
Высота : 576 пикс.
Соотношение сторон : 16:9
Частота кадров : 25,000 кадр/сек
Стандарт вещания : Component
Цветовое пространство : YUV
Подвыборка цветности : 4:2:0
Битовая глубина : 8 бит
Тип развёртки : Прогрессивная
Порядок развёртки : Верхнее поле первое
Метод сжатия : С потерями
Бит/(Пиксели*Кадры) : 0.540
Размер потока : 809 Мбайт (79%)

Аудио #1
Идентификатор : 189 (0xBD)-128 (0x80)
Формат : AC-3
Формат/Информация : Audio Coding 3
Расширение режима : CM (complete main)
Режим смешивания : DVD-Video
Продолжительность : 20 м.
Вид битрейта : Постоянный
Битрейт : 448 Кбит/сек
Канал(ы) : 6 канала(ов)
Расположение каналов : Front: L C R, Side: L R, LFE
Частота : 48,0 КГц
Битовая глубина : 16 бит
Метод сжатия : С потерями
Задержка видео : -728 мс.
Размер потока : 64,8 Мбайт (6%)

Аудио #2
Идентификатор : 189 (0xBD)-129 (0x81)
Формат : AC-3
Формат/Информация : Audio Coding 3
Расширение режима : CM (complete main)
Режим смешивания : DVD-Video
Продолжительность : 20 м.
Вид битрейта : Постоянный
Битрейт : 448 Кбит/сек
Канал(ы) : 6 канала(ов)
Расположение каналов : Front: L C R, Side: L R, LFE
Частота : 48,0 КГц
Битовая глубина : 16 бит
Метод сжатия : С потерями
Задержка видео : -760 мс.
Размер потока : 64,8 Мбайт (6%)

Аудио #3
Идентификатор : 189 (0xBD)-130 (0x82)
Формат : AC-3
Формат/Информация : Audio Coding 3
Расширение режима : CM (complete main)
Режим смешивания : DVD-Video
Продолжительность : 20 м.
Вид битрейта : Постоянный
Битрейт : 448 Кбит/сек
Канал(ы) : 6 канала(ов)
Расположение каналов : Front: L C R, Side: L R, LFE
Частота : 48,0 КГц
Битовая глубина : 16 бит
Метод сжатия : С потерями
Задержка видео : -760 мс.
Размер потока : 64,8 Мбайт (6%)

Текст #1
Идентификатор : 189 (0xBD)-32 (0x20)
Формат : RLE
Формат/Информация : Run-length encoding
Режим смешивания : DVD-Video
Продолжительность : 20 м.
Задержка видео : -376 мс.

Текст #2
Идентификатор : 189 (0xBD)-33 (0x21)
Формат : RLE
Формат/Информация : Run-length encoding
Режим смешивания : DVD-Video
Продолжительность : 20 м.
Задержка видео : -376 мс.

Текст #3
Идентификатор : 189 (0xBD)-34 (0x22)
Формат : RLE
Формат/Информация : Run-length encoding
Режим смешивания : DVD-Video
Продолжительность : 20 м.
Задержка видео : -376 мс.

Текст #4
Идентификатор : 189 (0xBD)-35 (0x23)
Формат : RLE
Формат/Информация : Run-length encoding
Режим смешивания : DVD-Video
Продолжительность : 20 м.
Задержка видео : -376 мс.

Текст #5
Идентификатор : 189 (0xBD)-36 (0x24)
Формат : RLE
Формат/Информация : Run-length encoding
Режим смешивания : DVD-Video
Продолжительность : 20 м.
Задержка видео : -376 мс.

Текст #6
Идентификатор : 189 (0xBD)-37 (0x25)
Формат : RLE
Формат/Информация : Run-length encoding
Режим смешивания : DVD-Video
Продолжительность : 20 м.
Задержка видео : -376 мс.

Свернуть

Скриншоты
Скриншоты меню
Изображение
Изображение
Изображение
Изображение
Изображение
Изображение
Изображение
Свернуть
Изображение
Изображение
Изображение
Изображение
Изображение
Изображение
Изображение
Изображение
Свернуть

Знаете ли Вы, что...
Майкл Бьен проходил пробы на роль Нэда Пэппера.
Свернуть

Изображение Изображение
Не в сети
Профиль  
 Добавлено: 2011-06-12 08:57 (спустя 7 часов)
Стаж: 6 лет 7 месяцев
Сообщений: 9
Как фильм?
Не в сети
Профиль  
Начать новую темуОтветить на тему  [ Сообщений: 2 ] 
Вы не можете начинать темы
Вы не можете отвечать на сообщения
Вы не можете редактировать свои сообщения
Вы не можете удалять свои сообщения