Правила форума

  • В этом разделе создание новых тем Запрещено.
  • Для создания новых тем пользуйтесь Корневым разделом DVD и HD фильмы.
Начать новую темуОтветить на тему  [ Сообщений: 2 ] 
Торрент файл
Размер: 4.37 GB • Зарегистрирован: 4 года 3 месяца • Статус: Проверено
Скачан: 152 раза • Желающих скачать: 0 • Поблагодарили: 33 раза
 Раздают: 0  |  0 KB/s  ]   Качают: 0  |  0 KB/s  ] 
 Полного источника не было 2 года 5 месяцев 
Сообщения
 Добавлено: 2012-08-17 08:45
DVD Release Group
Аватара пользователя
Стаж: 7 лет 1 месяц
Сообщений: 3546
Спасибок: 246973
Лайков: 1018
Железное небо

Iron Sky

«Вторжение с тёмной стороны Луны!»


Изображение


Год выпуска: 2012
Страна: Германия Финляндия Австралия
Жанр: Фантастика, боевик, комедия
Продолжительность: 01:28:56
Перевод: Профессиональный (полное дублирование)
Cубтитры: Нет
Режиссер: Тимо Вуоренсола
В ролях: Юлия Дитце, Удо Кир, Пета Сержант, Ким Джексон, Гёц Отто, Стефани Пол, Кристофер Кирби, Моника Госсманн, Джим Нобелок, Юки Ивамото
Описание: 70 лет назад недобитые нацисты улетели на Луну. Теперь, когда их гигантский флот возмездия почти достроен, они решили устроить Земле новый блицкриг. Тем временем президент США готова на всё, чтобы пойти на второй срок — даже развязать в космосе войну за природные ресурсы; а тщеславный офицер Четвертого Рейха Клаус задумал предать фюрера и получить власть над Землёй в свои руки. Боевые цеппелины уже вышли на орбиту, земные города под прицелом. Похоже, мира хотят только двое: наивная учительница с Луны Ренате и бывший астронавт Джеймс Вашингтон.
Кинопоиск: 5.9 (6310)
IMDb: 6.3 (31893)
Дополнительно:
Исходник: DVD9 (4.67 GB) [лицензия, PAL 16:9].
Убрано: Russian (AC3, 2 ch), заставки и предупреждение.
Сжатие фильма нет.
Работоспособность проверена на софтовом плеере Windows Media и бытовом LG.
Качество: DVD5 (сжатый)
Формат: DVD Video
Видео кодек: MPEG2
Аудио кодек: AC3
Видео: 720х576@1024x576 25fps 4449Kbps
Аудио:
Аудио Rus: 48kHz 6ch 448Kbps
Аудио Eng: 48kHz 6ch 448Kbps
"MediaInfo"
Формат : MPEG-PS
Размер файла : 1024 Мбайт
Продолжительность : 26 м.
Режим общего битрейта : Переменный
Общий поток : 5453 Кбит/сек

Видео
Идентификатор : 224 (0xE0)
Формат : MPEG Video
Версия формата : Version 2
Профиль формата : Main@Main
Параметр BVOP формата : Да
Параметр матрицы формата : Выборочная
Параметр GOP формата : M=3, N=12
Продолжительность : 26 м.
Вид битрейта : Переменный
Битрейт : 4449 Кбит/сек
Максимальный битрейт : 7500 Кбит/сек
Ширина : 720 пикселей
Высота : 576 пикселей
Соотношение сторон : 16:9
Частота кадров : 25,000 кадров/сек
Стандарт вещания : PAL
Цветовое пространство : YUV
Субдискретизация насыщенности : 4:2:0
Битовая глубина : 8 бит
Тип развёртки : Прогрессивная
Метод сжатия : С потерями
Бит/(Пиксели*Кадры) : 0.429
Размер потока : 835 Мбайт (82%)

Аудио #1
Идентификатор : 189 (0xBD)-128 (0x80)
Формат : AC-3
Формат/Информация : Audio Coding 3
Расширение режима : CM (complete main)
Режим смешивания : DVD-Video
Продолжительность : 26 м.
Вид битрейта : Постоянный
Битрейт : 448 Кбит/сек
Каналы : 6 каналов
Расположение каналов : Front: L C R, Side: L R, LFE
Частота : 48,0 КГц
Битовая глубина : 16 бит
Метод сжатия : С потерями
Размер потока : 84,1 Мбайт (8%)

Аудио #2
Идентификатор : 189 (0xBD)-130 (0x82)
Формат : AC-3
Формат/Информация : Audio Coding 3
Расширение режима : CM (complete main)
Режим смешивания : DVD-Video
Продолжительность : 26 м.
Вид битрейта : Постоянный
Битрейт : 448 Кбит/сек
Каналы : 6 каналов
Расположение каналов : Front: L C R, Side: L R, LFE
Частота : 48,0 КГц
Битовая глубина : 16 бит
Метод сжатия : С потерями
Размер потока : 84,1 Мбайт (8%)

Меню
Свернуть

"Скриншоты"
Изображение
Изображение
Изображение
Изображение
Изображение
Изображение
Изображение
Изображение
Изображение
Свернуть

Раздача группы:
Изображение
Не в сети
Профиль  
 Добавлено: 2012-10-25 21:25 (спустя 2 месяца 8 дней)
Стаж: 7 лет 2 месяца
Сообщений: 9
дай скорости

Добавлено спустя 6 минут:
спасибо
Не в сети
Профиль  
Начать новую темуОтветить на тему  [ Сообщений: 2 ] 
Вы не можете начинать темы
Вы не можете отвечать на сообщения
Вы не можете редактировать свои сообщения
Вы не можете удалять свои сообщения