Правила форума

  • В этом разделе создание новых тем Запрещено.
  • Для создания новых тем пользуйтесь Корневым разделом DVD и HD фильмы.
Начать новую темуОтветить на тему  [ Сообщений: 3 ] 
Торрент файл
Размер: 7.68 GB • Зарегистрирован: 5 лет 3 месяца • Статус: Проверено
Скачан: 140 раз • Желающих скачать: 0 • Поблагодарили: 16 раз
 Раздают: 0  |  0 KB/s  ]   Качают: 0  |  0 KB/s  ] 
 Полного источника не было 2 года 5 месяцев 
Сообщения
 Добавлено: 2011-08-17 12:47
Аватара пользователя
Стаж: 6 лет 6 месяцев
Сообщений: 214
Спасибок: 10697
Жених напрокат
Something Borrowed

Изображение

Год выпуска: 2011
Страна: США
Слоган: «Как стирается тонкая грань между дружбой и любовью?»

Жанр: драма, мелодрама, комедия
Продолжительность: 01:48:08
Перевод: Профессиональный (полное дублирование)
Режиссер: Люк Гринфилд
В ролях: Джиннифер Гудвин, Кейт Хадсон, Колин Эглсфилд, Джон Красински, Стив Хоуи, Эшли Уильямс, Джеффри Пирсон, Джилл Айкенберри, Джонатан Эпштейн, Лея Томпсон

Бюджет: $35 000 000
Сборы в США: $39 046 489
Сборы в России: $2 390 586
Сборы в мире: $60 183 821

Мировая премьера: 20 апреля 2011
Релиз на DVD: 25 августа 2011, «Парадиз Видео»
Релиз на Blu-ray: 22 сентября 2011, «Парадиз Видео»
Описание: Легкомысленная невеста, много сил потратившая на то, чтобы привести своего бойфренда к мысли о браке, даже не подозревает, что ее лучшая подруга, успешный адвокат, посвятившая лучшие годы своей жизни карьере, может оказаться в постели с ее женихом, мгновенно завоевав его душу, сердце и тело; Короче, парень попал. Приближается день свадьбы. Кто же пойдет под венец?
Изображение 5.5/10 (6,174 votes) Изображение 5.647 (1 888)
MPAA: Изображение - Детям до 13 лет просмотр не желателен

Релиз группы: Изображение Раздача: Изображение
Изображение
Формат: DVD Video
Качество: DVD9 R5
Видео: PAL 16:9 (720x576)
Аудио: English / Russian (Dolby AC3, 6 ch), Russian (Dolby AC3, 2 ch)
Субтитры: Russian
Размер: 7.68 Gb
Дополнительно: Скоро на DVD
NFO
Title:
Size: 7.68 Gb ( 8 051 734 KBytes ) - DVD-9
Enabled regions: 1, 2, 3, 4, 5, 6, 7, 8

VTS_01 :
Play Length: 00:00:01+01:48:07
Video: PAL 16:9 (720x576) VBR, Auto Pan&Scan
Audio:
Russian (Dolby AC3, 6 ch)
Russian (Dolby AC3, 2 ch)
English (Dolby AC3, 6 ch)
Subtitles:
Russian

VTS_02 :
Play Length: 00:00:01+00:00:11
Video: PAL 16:9 (720x576) VBR, Auto Pan&Scan
Audio:
Russian (Dolby AC3, 2 ch)

VTS_03 :
Play Length: 00:00:01+00:00:17
Video: PAL 4:3 (720x576) VBR
Audio:
Russian (Dolby AC3, 2 ch)

VTS_04 :
Play Length: 00:00:01+00:12:31
Video: PAL 16:9 (720x576) VBR, Auto Pan&Scan
Audio:
Russian (Dolby AC3, 2 ch)
Свернуть
MediaInfo
General
Complete name : D:\Релизы\Rip\VTS_01_6.VOB
Format : MPEG-PS
File size : 1 024 MiB
Duration : 15mn 40s
Overall bit rate : 9 128 Kbps

Video
ID : 224 (0xE0)
Format : MPEG Video
Format version : Version 2
Format profile : Main@Main
Format settings, BVOP : Yes
Format settings, Matrix : Default
Format settings, GOP : M=3, N=12
Duration : 15mn 40s
Bit rate mode : Constant
Bit rate : 8 000 Kbps
Width : 720 pixels
Height : 576 pixels
Display aspect ratio : 16:9
Frame rate : 25.000 fps
Standard : PAL
Color space : YUV
Chroma subsampling : 4:2:0
Bit depth : 8 bits
Scan type : Interlaced
Scan order : Top Field First
Compression mode : Lossy
Bits/(Pixel*Frame) : 0.772
Stream size : 896 MiB (87%)

Audio #1
ID : 189 (0xBD)-128 (0x80)
Format : AC-3
Format/Info : Audio Coding 3
Mode extension : CM (complete main)
Muxing mode : DVD-Video
Duration : 15mn 40s
Bit rate mode : Constant
Bit rate : 384 Kbps
Channel(s) : 6 channels
Channel positions : Front: L C R, Side: L R, LFE
Sampling rate : 48.0 KHz
Bit depth : 16 bits
Compression mode : Lossy
Delay relative to video : -288ms
Stream size : 43.1 MiB (4%)

Audio #2
ID : 189 (0xBD)-129 (0x81)
Format : AC-3
Format/Info : Audio Coding 3
Mode extension : CM (complete main)
Muxing mode : DVD-Video
Duration : 15mn 40s
Bit rate mode : Constant
Bit rate : 192 Kbps
Channel(s) : 2 channels
Channel positions : Front: L R
Sampling rate : 48.0 KHz
Bit depth : 16 bits
Compression mode : Lossy
Delay relative to video : -256ms
Stream size : 21.5 MiB (2%)

Audio #3
ID : 189 (0xBD)-130 (0x82)
Format : AC-3
Format/Info : Audio Coding 3
Mode extension : CM (complete main)
Muxing mode : DVD-Video
Duration : 15mn 40s
Bit rate mode : Constant
Bit rate : 384 Kbps
Channel(s) : 6 channels
Channel positions : Front: L C R, Side: L R, LFE
Sampling rate : 48.0 KHz
Bit depth : 16 bits
Compression mode : Lossy
Delay relative to video : -288ms
Stream size : 43.1 MiB (4%)

Text
ID : 189 (0xBD)-32 (0x20)
Format : RLE
Format/Info : Run-length encoding
Muxing mode : DVD-Video
Свернуть

"Скриншоты"

Изображение
Изображение
Изображение
Изображение
Изображение
Свернуть
Не в сети
Профиль  
 Добавлено: 2011-08-17 22:37 (спустя 9 часов)
Аватара пользователя
Стаж: 7 лет 1 месяц
Возраст: 32
Сообщений: 20
ребят, обложка ж от другого фильма...более старого
Не в сети
Профиль  
 Добавлено: 2011-08-17 22:50 (спустя 13 минут)
Аватара пользователя
Стаж: 8 лет 5 месяцев
Сообщений: 565
Спасибок: 6266
Лайков: 1
Kerima
да,да )2005 год
Не в сети
Профиль  
Начать новую темуОтветить на тему  [ Сообщений: 3 ] 
Вы не можете начинать темы
Вы не можете отвечать на сообщения
Вы не можете редактировать свои сообщения
Вы не можете удалять свои сообщения