Правила форума

  • В этом разделе создание новых тем Запрещено.
  • Для создания новых тем пользуйтесь Корневым разделом DVD и HD фильмы.
Начать новую темуОтветить на тему  [ Сообщений: 3 ] 
Торрент файл
Размер: 6.64 GB • Зарегистрирован: 5 лет 6 месяцев • Статус: Проверено
Скачан: 297 раз • Желающих скачать: 0 • Поблагодарили: 48 раз
 Раздают: 0  |  0 KB/s  ]   Качают: 0  |  0 KB/s  ] 
 Полного источника не было 3 года 1 месяц 
Сообщения
 Добавлено: 2011-05-11 21:47
Top-releaser
Аватара пользователя
Стаж: 7 лет 3 месяца
Возраст: 25
Сообщений: 1036
Спасибок: 2694
Лайков: 9
Как выйти замуж за миллиардера / Chalet Girl

«История золушки в Альпах»

Изображение



Год выхода: 2011
Страна: Германия, Великобритания, Австрия

Жанр: мелодрама, комедия
Продолжительность: 01:32:37
Перевод: Дублированный [лицензия]

Режиссер: Фил Трэйл
Сценарий: Вольфган Бер, Пиппа Кросс, Дитмар Гюнче
Продюсер: Эд Вайлд
Оператор: Кристиан Хенсон
Композитор: Бенедикт Херфорт, Клаудия Хеллвич, Леони Хартард

В ролях: Фелисити Джонс, Эд Вествик, Билл Найи, Брук Шилдс, Тэмсин Эгертон, Билл Бэйли, София Буш, Грегор Блоеб, Адам Боусдукс, Николас Браун

Описание: Ким, юная скромница английского городка, получает работу на фешенебельном горнолыжном курорте в Альпах. Ей сложно привыкнуть к новому миру роскоши, раскованности и снежных рекордов. Но вскоре Ким обнаруживает в себе талант к спуску на сноуборде и, кажется, влюбляется в симпатичного сына владельца курорта, отдыхающего здесь с подругой… Сможет ли Ким пробиться на Кубок Мира по сноуборду с ценным призом для победительницы? И как ей понять, не морочит ли «золотой мальчик» ей голову?

Cборы в России: $1 135 703
Зрители: Изображение 166.4 тыс., Изображение 8.6 тыс.


KinoPoisk.ru: 6.938
IMDb.com: 6.0/10

Релиз группы Изображение Pаздача группы:Изображение

Качество: DVD9 R5
Формат: DVD Video

Видео: MPEG2 Video 720x576 (16:9) 25.00fps 8000kbps
Аудио 1: [Rus] Dolby AC3, 48.0 KHz, 448 Kbps, 6 ch
Аудио 2: [Eng] Dolby AC3, 48.0 KHz, 448 Kbps, 6 ch
Аудио 3: [Rus] DTS, 48.0 KHz, 755 Kbps, 6 ch
Субтитры: [Rus] Rle

MediaInfo
General
Complete name : H:\ReLease\Kak.vyjti.zamuzh.za.milliardera.2011.D.DVD.ELEKTRI4KA\VIDEO_TS\VTS_03_2.VOB
Format : MPEG-PS
File size : 1 024 MiB
Duration : 16mn 14s
Overall bit rate : 8 811 Kbps

Video
ID : 224 (0xE0)
Format : MPEG Video
Format version : Version 2
Format profile : Main@Main
Format settings, BVOP : Yes
Format settings, Matrix : Default
Duration : 16mn 14s
Bit rate mode : Variable
Bit rate : 6 985 Kbps
Nominal bit rate : 8 000 Kbps
Width : 720 pixels
Height : 576 pixels
Display aspect ratio : 16:9
Frame rate : 25.000 fps
Standard : PAL
Color space : YUV
Chroma subsampling : 4:2:0
Bit depth : 8 bits
Scan type : Progressive
Compression mode : Lossy
Bits/(Pixel*Frame) : 0.674
Stream size : 812 MiB (79%)

Audio #1
ID : 189 (0xBD)-128 (0x80)
Format : AC-3
Format/Info : Audio Coding 3
Mode extension : CM (complete main)
Muxing mode : DVD-Video
Duration : 16mn 14s
Bit rate mode : Constant
Bit rate : 448 Kbps
Channel(s) : 6 channels
Channel positions : Front: L C R, Side: L R, LFE
Sampling rate : 48.0 KHz
Bit depth : 16 bits
Compression mode : Lossy
Delay relative to video : -280ms
Stream size : 52.1 MiB (5%)

Audio #2
ID : 189 (0xBD)-129 (0x81)
Format : AC-3
Format/Info : Audio Coding 3
Mode extension : CM (complete main)
Muxing mode : DVD-Video
Duration : 16mn 14s
Bit rate mode : Constant
Bit rate : 448 Kbps
Channel(s) : 6 channels
Channel positions : Front: L C R, Side: L R, LFE
Sampling rate : 48.0 KHz
Bit depth : 16 bits
Compression mode : Lossy
Delay relative to video : -280ms
Stream size : 52.1 MiB (5%)

Audio #3
ID : 189 (0xBD)-138 (0x8A)
Format : DTS
Format/Info : Digital Theater Systems
Muxing mode : DVD-Video
Duration : 16mn 14s
Bit rate mode : Constant
Bit rate : 755 Kbps
Channel(s) : 6 channels
Channel positions : Front: L C R, Side: L R, LFE
Sampling rate : 48.0 KHz
Bit depth : 24 bits
Compression mode : Lossy
Delay relative to video : -355ms
Stream size : 87.7 MiB (9%)

Text
ID : 189 (0xBD)-32 (0x20)
Format : RLE
Format/Info : Run-length encoding
Muxing mode : DVD-Video
Delay relative to video : 880ms

Menu


Свернуть
Скриншоты
Изображение
Изображение
Изображение
Изображение
Изображение
Изображение
Свернуть
Не в сети
Профиль  
 Добавлено: 2011-05-14 20:15 (спустя 2 дня 22 часа)
Аватара пользователя
Стаж: 8 лет 3 месяца
Возраст: 43
Сообщений: 3290
Спасибок: 21012
Лайков: 3
Отличная сказка. :co_ol: спасибо
_________________
Изображение
Не в сети
Профиль  
 Добавлено: 2011-05-29 23:33 (спустя 15 дней)
Аватара пользователя
Стаж: 7 лет 3 месяца
Возраст: 34
Сообщений: 127
спасибо прикольный фильмец добрый!!!
помогу раздать!!!
посижу 2 недели
Не в сети
Профиль  
Начать новую темуОтветить на тему  [ Сообщений: 3 ] 
Вы не можете начинать темы
Вы не можете отвечать на сообщения
Вы не можете редактировать свои сообщения
Вы не можете удалять свои сообщения