Правила форума

  • В этом разделе создание новых тем Запрещено.
  • Для создания новых тем пользуйтесь Корневым разделом DVD и HD фильмы.
Начать новую темуОтветить на тему  [ 1 сообщение ] 
Торрент файл
Размер: 3.96 GB • Зарегистрирован: 3 года 6 месяцев • Статус: Проверено
Скачан: 91 раз • Желающих скачать: 0 • Поблагодарили: 32 раза
 Раздают: 0  |  0 KB/s  ]   Качают: 0  |  0 KB/s  ] 
 Полного источника не было 7 часов 
Сообщения
 Добавлено: 2013-05-26 02:22
Руководитель релиз-группы
Аватара пользователя
Стаж: 7 лет 4 месяца
Возраст: 31
Сообщений: 3407
Спасибок: 46729
Лайков: 5
Изображение

Клин клином
Fire with Fire


Год выпуска: 2012
Страна: США
Слоган: «Revenge has its own set of rules.»
Жанр: боевик, триллер, драма, криминал
Продолжительность: 01:33:05
Перевод: Профессиональный (многоголосый, закадровый) [лицензия]
Режиссер: Дэвид Баррет
Сценарий: Том О’Коннор, Лоуелл Коффил
Продюсер: Фифти Сент, Эндрю Дин, Рэндолл Эмметт, Джордж Фурла, Ричард Джексон
Оператор: Кристофер Пробст
Композитор: Тревор Моррис
В ролях: Джош Дюамель, Розарио Доусон, Брюс Уиллис, Винсент Д’Онофрио, Джулиан МакМэхон, Ричард Шифф, Куинтон Джексон, Фифти Сент, Винни Джонс, Эри Вервин, Эрик Винтер, Бонни Соммервиль
Бюджет: $27 210 000
Описание: Главный герой - пожарный, попадающий в программу защиты свидетелей. Когда же человек, против которого он должен давать показания, угрожает ему, герой вынужден взять правосудие в свои руки, чтобы спасти любимую женщину.
Изображение
MPAA: Изображение
Релиз: Изображение Раздача группы: Изображение
Качество: DVD5
Формат: DVD Video
Видео: MPEG2; PAL 16:9 (720x576)
Аудио: Dolby AC3, 6 ch, 448 Kbps Russian
Субтитры: нет
Дополнительно: нет
DVDInfo
    Title: Klin.klinom.2012.DVD5
    Size: 3.96 Gb ( 4 151 694,00 KBytes ) - DVD-5
    Enabled regions: 1, 2, 3, 4, 5, 6, 7, 8

    VTS_01 :
    Play Length: 01:33:05
    Video: PAL 16:9 (720x576) VBR, Auto Letterboxed
    Audio:
    Russian (Dolby AC3, 6 ch)

    VTS_02 :
    Play Length: 00:00:08
    Video: PAL 4:3 (720x576) VBR

    VTS_03 :
    Play Length: 00:00:21
    Video: PAL 16:9 (720x576) VBR, Auto Letterboxed
    Audio:
    English (Dolby AC3, 2 ch)
Свернуть
mediainfo
    Формат : MPEG-PS
    Размер файла : 1024 Мбайт
    Продолжительность : 22 м.
    Режим общего битрейта : Переменный
    Общий поток : 6328 Кбит/сек

    Видео
    Идентификатор : 224 (0xE0)
    Формат : MPEG Video
    Версия формата : Version 2
    Профиль формата : Main@Main
    Параметр BVOP формата : Да
    Параметр матрицы формата : Выборочная
    Продолжительность : 22 м.
    Вид битрейта : Переменный
    Битрейт : 5754 Кбит/сек
    Максимальный битрейт : 8000 Кбит/сек
    Ширина : 720 пикселей
    Высота : 576 пикселей
    Соотношение сторон : 16:9
    Частота кадров : 25,000 кадров/сек
    Стандарт вещания : PAL
    Цветовое пространство : YUV
    Субдискретизация насыщенности : 4:2:0
    Битовая глубина : 8 бит
    Тип развёртки : Чересстрочная
    Порядок развёртки : Верхнее поле первое
    Метод сжатия : С потерями
    Бит/(Пиксели*Кадры) : 0.555
    Размер потока : 931 Мбайт (91%)

    Аудио
    Идентификатор : 189 (0xBD)-128 (0x80)
    Формат : AC-3
    Формат/Информация : Audio Coding 3
    Расширение режима : CM (complete main)
    Режим смешивания : DVD-Video
    Продолжительность : 22 м.
    Вид битрейта : Постоянный
    Битрейт : 448 Кбит/сек
    Каналы : 6 каналов
    Расположение каналов : Front: L C R, Side: L R, LFE
    Частота : 48,0 КГц
    Битовая глубина : 16 бит
    Метод сжатия : С потерями
    Размер потока : 72,5 Мбайт (7%)

    Меню

Свернуть
Знаете ли Вы, что...
  • Когда Хэйган сражается с Джереми на складе, он поднимает револьвер, чтобы убить Джереми, и в этот момент слышно, как взводят курок, но затем, когда показывают пистолет, курок не взведен.
  • В конце фильма, когда лейтенант Селла и офицер Уэстлейк удаляют фотографии по делу Хэйгана, последнюю фотографию с мужчиной с бородой удаляют дважды. Сначала Уэстлейк это делает, а в следующем кадре - Селл.
  • Когда Бойд преследует Джереми, он стреляет семь раз из револьвера, который может выстрелить всего пять или шесть в зависимости от калибра.
  • Когда Талия дает урок стрельбы Джереми, интенсивность дождя заметно меняется после смены кадра.
  • На заправке, которая по сюжету должна быть в Лонг-Бич, есть знак «Лото Луизианы» рядом с дверью.
  • Салон Volkswagen Passat не соответствует оригинальному Passat B5 (который показывают в сцене после учебной стрельбы).
  • Во время начальных титров отображается рост Хэйгана (6 футов и 2 дюйма), тогда как по индикации на фоне четко видно, что он составляет 6 футов и 4,75 дюйма.
Свернуть
Скриншоты

меню
Изображение

Изображение
Свернуть
Изображение

Изображение

Изображение

Изображение
Свернуть
Не в сети
Профиль  
Начать новую темуОтветить на тему  [ 1 сообщение ] 
Вы не можете начинать темы
Вы не можете отвечать на сообщения
Вы не можете редактировать свои сообщения
Вы не можете удалять свои сообщения