Правила форума

  • В этом разделе создание новых тем Запрещено.
  • Для создания новых тем пользуйтесь Корневым разделом DVD и HD фильмы.
Начать новую темуОтветить на тему  [ Сообщений: 5 ] 
Торрент файл
Размер: 4.37 GB • Зарегистрирован: 4 года 5 месяцев • Статус: Проверено
Скачан: 407 раз • Желающих скачать: 0 • Поблагодарили: 66 раз
 Раздают: 0  |  0 KB/s  ]   Качают: 0  |  0 KB/s  ] 
 Полного источника не было 25 дней 
Сообщения
 Добавлено: 2012-06-09 07:42
DVD Release Group
Аватара пользователя
Стаж: 7 лет 1 месяц
Сообщений: 3559
Спасибок: 247299
Лайков: 1018
Код доступа «Кейптаун»

Safe House


Изображение


Год выпуска: 2012
Страна: США, ЮАР
Жанр: Боевик, триллер, криминал
Продолжительность: 01:50:10
Перевод: Профессиональный (полное дублирование)
Cубтитры: Русские, английские, чешские, эстонские, латвийские, литовские, украинские
Режиссер: Дэниэл Эспиноза
В ролях: Дензел Вашингтон, Райан Рейнольдс, Вера Фармига, Брендан Глисон, Сэм Шепард, Рубен Бладес, Нора Арнезедер, Роберт Патрик
Описание: Выпускник Гарварда Мэтт мечтает со своей невестой переехать в Париж. Но она не знает, что уже год он работает на ЦРУ.
Легендарный агент ЦРУ Фрост владеет секретной информацией. Но он вышел из-под контроля, и теперь его главное правило: «не доверяй никому — тебя предаст каждый».
Их пути пересекутся в одном из красивейших городов мира — Кейптауне, где каждый должен будет сделать свой выбор.
Кинопоиск: 6.9 (5905)
IMDb: 6.9 (38825)
Дополнительно:
Исходник: DVD9 (7.72 GB) [лицензия, PAL 16:9].
Убрано: Анонсы, Как снимают боевик, Czech (Dolby AC3, 6 ch), заставки и предупреждение.
Сжатие фильма 38% сжатия (без учета ручного перераспределения битрейта, за счет большего сжатия конечных титров).
Работоспособность проверена на софтовом плеере Windows Media и бытовом LG.
Качество: DVD5 (сжатый)
Формат: DVD Video
Видео кодек: MPEG2
Аудио кодек: AC3
Видео: 720х576 25fps 5260Kbps
Аудио:
Аудио Rus: 48kHz 6ch 384Kbps
Аудио Eng: 48kHz 6ch 384Kbps
"MediaInfo"
Формат : MPEG-PS
Размер файла : 1024 Мбайт
Продолжительность : 23 м.
Режим общего битрейта : Переменный
Общий поток : 6150 Кбит/сек

Видео
Идентификатор : 224 (0xE0)
Формат : MPEG Video
Версия формата : Version 2
Профиль формата : Main@Main
Параметр BVOP формата : Да
Параметр матрицы формата : Выборочная
Продолжительность : 23 м.
Вид битрейта : Переменный
Битрейт : 5260 Кбит/сек
Максимальный битрейт : 8839 Кбит/сек
Ширина : 720 пикселей
Высота : 576 пикселей
Соотношение сторон : 16:9
Частота кадров : 25,000 кадров/сек
Стандарт вещания : PAL
Цветовое пространство : YUV
Субдискретизация насыщенности : 4:2:0
Битовая глубина : 8 бит
Тип развёртки : Чересстрочная
Порядок развёртки : Верхнее поле первое
Метод сжатия : С потерями
Бит/(Пиксели*Кадры) : 0.507
Размер потока : 876 Мбайт (86%)

Аудио #1
Идентификатор : 189 (0xBD)-128 (0x80)
Формат : AC-3
Формат/Информация : Audio Coding 3
Расширение режима : CM (complete main)
Режим смешивания : DVD-Video
Продолжительность : 23 м.
Вид битрейта : Постоянный
Битрейт : 384 Кбит/сек
Каналы : 6 каналов
Расположение каналов : Front: L C R, Side: L R, LFE
Частота : 48,0 КГц
Битовая глубина : 16 бит
Метод сжатия : С потерями
Размер потока : 63,9 Мбайт (6%)

Аудио #2
Идентификатор : 189 (0xBD)-129 (0x81)
Формат : AC-3
Формат/Информация : Audio Coding 3
Расширение режима : CM (complete main)
Режим смешивания : DVD-Video
Продолжительность : 23 м.
Вид битрейта : Постоянный
Битрейт : 384 Кбит/сек
Каналы : 6 каналов
Расположение каналов : Front: L C R, Side: L R, LFE
Частота : 48,0 КГц
Битовая глубина : 16 бит
Метод сжатия : С потерями
Размер потока : 63,9 Мбайт (6%)

Текст #1
Идентификатор : 189 (0xBD)-32 (0x20)
Формат : RLE
Формат/Информация : Run-length encoding
Режим смешивания : DVD-Video

Текст #2
Идентификатор : 189 (0xBD)-33 (0x21)
Формат : RLE
Формат/Информация : Run-length encoding
Режим смешивания : DVD-Video

Текст #3
Идентификатор : 189 (0xBD)-34 (0x22)
Формат : RLE
Формат/Информация : Run-length encoding
Режим смешивания : DVD-Video

Текст #4
Идентификатор : 189 (0xBD)-35 (0x23)
Формат : RLE
Формат/Информация : Run-length encoding
Режим смешивания : DVD-Video

Текст #5
Идентификатор : 189 (0xBD)-36 (0x24)
Формат : RLE
Формат/Информация : Run-length encoding
Режим смешивания : DVD-Video

Текст #6
Идентификатор : 189 (0xBD)-37 (0x25)
Формат : RLE
Формат/Информация : Run-length encoding
Режим смешивания : DVD-Video

Текст #7
Идентификатор : 189 (0xBD)-38 (0x26)
Формат : RLE
Формат/Информация : Run-length encoding
Режим смешивания : DVD-Video

Меню
Свернуть

"Скриншоты"
Изображение
Изображение
Изображение
Изображение
Изображение
Изображение
Изображение
Изображение
Изображение
Свернуть

Раздача группы:
Изображение
Не в сети
Профиль  
 Добавлено: 2012-06-18 14:06 (спустя 9 дней)
Аватара пользователя
Стаж: 7 лет
Возраст: 25
Сообщений: 163
Спасибок: 217
Как фильм ? Смотреть можно, или очередная ерунда.
_________________
"Если человек отправляется от точки, в которой знание не помогает, он идет в направлении смысла"
Не в сети
Профиль  
 Добавлено: 2012-06-23 15:37 (спустя 5 дней)
Стаж: 7 лет 2 месяца
Сообщений: 81
шикарный фильмец
Не в сети
Профиль  
 Добавлено: 2012-07-13 22:28 (спустя 20 дней)
Стаж: 7 лет 3 месяца
Возраст: 33
Сообщений: 194
Лайков: 6
Полфильма посмотрел онлайн, думаю лучше в хорошем качестве глянуть, сюжет типа как в трилогии про Борна, люблю такие фильмы, спасибо за раздачу :co_ol:
Не в сети
Профиль  
 Добавлено: 2012-08-01 18:29 (спустя 18 дней)
Стаж: 5 лет 7 месяцев
Сообщений: 14
Фильм супер, Вошингтон вообще красавец.
Не в сети
Профиль  
Начать новую темуОтветить на тему  [ Сообщений: 5 ] 
Вы не можете начинать темы
Вы не можете отвечать на сообщения
Вы не можете редактировать свои сообщения
Вы не можете удалять свои сообщения