Правила форума

  • В этом разделе создание новых тем Запрещено.
  • Для создания новых тем пользуйтесь Корневым разделом DVD и HD фильмы.
Начать новую темуОтветить на тему  [ Сообщений: 2 ] 
Торрент файл
Размер: 7.72 GB • Зарегистрирован: 4 года 6 месяцев • Статус: Проверено
Скачан: 100 раз • Желающих скачать: 0 • Поблагодарили: 23 раза
 Раздают: 0  |  0 KB/s  ]   Качают: 0  |  0 KB/s  ] 
 Полного источника не было 3 года 2 месяца 
Сообщения
 Добавлено: 2012-06-08 04:34
Руководитель релиз-группы
Аватара пользователя
Стаж: 7 лет 5 месяцев
Возраст: 31
Сообщений: 3406
Спасибок: 46729
Лайков: 5
Изображение

Код доступа «Кейптаун»
Safe House


Год выпуска: 2012
Страна: США, ЮАР
Слоган: «No One Is Safe»
Жанр: боевик, триллер, криминал, детектив
Продолжительность: 01:50:10
Перевод: Профессиональный (полное дублирование)
Режиссер: Дэниэл Эспиноза
Сценарий: Дэвид Гуггенхейм
Продюсер: Скотт Стубер, Скотт Аверсано, Марк Д. Эванс
Оператор: Оливер Вуд
Композитор: Рамин Джавади
В ролях: Дензел Вашингтон, Райан Рейнольдс, Вера Фармига, Брендан Глисон, Сэм Шепард, Рубен Бладес, Нора Арнезедер, Роберт Патрик...
Бюджет: $85 000 000
Сборы в мире: $203 079 209
Описание: Выпускник Гарварда Мэтт мечтает со своей невестой переехать в Париж. Но она не знает, что уже год он работает на ЦРУ.
Легендарный агент ЦРУ Фрост владеет секретной информацией. Но он вышел из-под контроля, и теперь его главное правило: «не доверяй никому - тебя предаст каждый».
Их пути пересекутся в одном из красивейших городов мира - Кейптауне, где каждый должен будет сделать свой выбор.
Изображение
MPAA: Изображение
Раздача группы: Изображение
Качество: DVD9
Формат: DVD Video
Видео: MPEG2; PAL 16:9 (720x576)
Аудио #1: Dolby AC3, 6 ch, 384 Kbps Russian
Аудио #2: Dolby AC3, 6 ch, 384 Kbps English
Аудио #3: Dolby AC3, 6 ch, 384 Kbps Czech(Ceske)
Субтитры: Русские, Английские, Чешские, Эстонские, Латвийские, Литовские, Украинские
Дополнительно: "Как снимают боевик"
Изображение
DVDInfo
    Title: Kod.dostupa.Keiptaun_2012_DVD9.[R.G.Daredevil]
    Size: 7.72 Gb ( 8 092 884,00 KBytes ) - DVD-9
    Enabled regions: 1, 2, 3, 4, 5, 6, 7, 8

    VTS_01 :
    Play Length: 00:00:14
    Video: PAL 16:9 (720x576) VBR, Auto Letterboxed
    Audio:
    English (Dolby AC3, 6 ch)

    VTS_02 :
    Play Length: 00:00:00
    Video: PAL 4:3 (720x576) VBR
    Audio:
    English (Dolby AC3, 2 ch)
    English (Dolby AC3, 2 ch)
    English (Dolby AC3, 2 ch)
    English (Dolby AC3, 2 ch)
    English (Dolby AC3, 2 ch)
    English (Dolby AC3, 2 ch)
    English (Dolby AC3, 2 ch)
    English (Dolby AC3, 2 ch)
    Subtitles:
    English
    English
    English
    English
    English
    English
    English
    English
    English
    English
    English
    English
    English
    English
    English
    English

    VTS_03 :
    Play Length: 00:00:24
    Video: PAL 16:9 (720x576) VBR, Auto Letterboxed
    Audio:
    English (Dolby AC3, 6 ch)

    VTS_04 :
    Play Length: 00:08:01
    Video: PAL 16:9 (720x576) VBR, Auto Letterboxed
    Audio:
    English (Dolby AC3, 2 ch)
    Subtitles:
    English
    Russian
    Czech(Ceske)

    VTS_05 :
    Play Length: 00:00:00
    Video: PAL 16:9 (720x576) VBR, Auto Letterboxed

    VTS_06 :
    Play Length: 00:02:24
    Video: PAL 16:9 (720x576) VBR, Auto Letterboxed
    Audio:
    English (Dolby AC3, 2 ch)
    Subtitles:
    English
    Russian
    Czech(Ceske)

    VTS_07 :
    Play Length: 00:01:52
    Video: PAL 16:9 (720x576) VBR, Auto Letterboxed
    Audio:
    English (Dolby AC3, 2 ch)
    Subtitles:
    English
    Russian
    Czech(Ceske)

    VTS_08 :
    Play Length: 00:00:08+00:00:08
    Video: PAL 16:9 (720x576) VBR, Auto Letterboxed
    Audio:
    English (Dolby AC3, 2 ch)

    VTS_09 :
    Play Length: 00:00:08+00:00:08
    Video: PAL 16:9 (720x576) VBR, Auto Letterboxed
    Audio:
    English (Dolby AC3, 2 ch)

    VTS_10 :
    Play Length: 00:02:02
    Video: PAL 16:9 (720x576) VBR, Auto Letterboxed
    Audio:
    English (Dolby AC3, 2 ch)
    Subtitles:
    English
    Russian
    Czech(Ceske)

    VTS_11 :
    Play Length: 01:50:10
    Video: PAL 16:9 (720x576) VBR, Auto Letterboxed
    Audio:
    English (Dolby AC3, 6 ch)
    Russian (Dolby AC3, 6 ch)
    Czech(Ceske) (Dolby AC3, 6 ch)
    Subtitles:
    English
    Russian
    Czech(Ceske)
    Estonian
    Latvian
    Lithuanian
    Ukrainian
    English
    Russian
    Czech(Ceske)
Свернуть
mediainfo
    Формат : MPEG-PS
    Размер файла : 1024 Мбайт
    Продолжительность : 15 м.
    Режим общего битрейта : Переменный
    Общий поток : 9437 Кбит/сек

    Видео
    Идентификатор : 224 (0xE0)
    Формат : MPEG Video
    Версия формата : Version 2
    Профиль формата : Main@Main
    Параметр BVOP формата : Да
    Параметр матрицы формата : Выборочная
    Продолжительность : 15 м.
    Вид битрейта : Переменный
    Битрейт : 8097 Кбит/сек
    Максимальный битрейт : 9800 Кбит/сек
    Ширина : 720 пикселей
    Высота : 576 пикселей
    Соотношение сторон : 16:9
    Частота кадров : 25,000 кадров/сек
    Стандарт вещания : PAL
    Цветовое пространство : YUV
    Субдискретизация насыщенности : 4:2:0
    Битовая глубина : 8 бит
    Тип развёртки : Чересстрочная
    Порядок развёртки : Верхнее поле первое
    Метод сжатия : С потерями
    Бит/(Пиксели*Кадры) : 0.781
    Размер потока : 879 Мбайт (86%)

    Аудио #1
    Идентификатор : 189 (0xBD)-128 (0x80)
    Формат : AC-3
    Формат/Информация : Audio Coding 3
    Расширение режима : CM (complete main)
    Режим смешивания : DVD-Video
    Продолжительность : 15 м.
    Вид битрейта : Постоянный
    Битрейт : 384 Кбит/сек
    Каналы : 6 каналов
    Расположение каналов : Front: L C R, Side: L R, LFE
    Частота : 48,0 КГц
    Битовая глубина : 16 бит
    Метод сжатия : С потерями
    Размер потока : 41,7 Мбайт (4%)

    Аудио #2
    Идентификатор : 189 (0xBD)-129 (0x81)
    Формат : AC-3
    Формат/Информация : Audio Coding 3
    Расширение режима : CM (complete main)
    Режим смешивания : DVD-Video
    Продолжительность : 15 м.
    Вид битрейта : Постоянный
    Битрейт : 384 Кбит/сек
    Каналы : 6 каналов
    Расположение каналов : Front: L C R, Side: L R, LFE
    Частота : 48,0 КГц
    Битовая глубина : 16 бит
    Метод сжатия : С потерями
    Размер потока : 41,7 Мбайт (4%)

    Аудио #3
    Идентификатор : 189 (0xBD)-130 (0x82)
    Формат : AC-3
    Формат/Информация : Audio Coding 3
    Расширение режима : CM (complete main)
    Режим смешивания : DVD-Video
    Продолжительность : 15 м.
    Вид битрейта : Постоянный
    Битрейт : 384 Кбит/сек
    Каналы : 6 каналов
    Расположение каналов : Front: L C R, Side: L R, LFE
    Частота : 48,0 КГц
    Битовая глубина : 16 бит
    Метод сжатия : С потерями
    Размер потока : 41,7 Мбайт (4%)

    Текст #1
    Идентификатор : 189 (0xBD)-32 (0x20)
    Формат : RLE
    Формат/Информация : Run-length encoding
    Режим смешивания : DVD-Video

    Текст #2
    Идентификатор : 189 (0xBD)-33 (0x21)
    Формат : RLE
    Формат/Информация : Run-length encoding
    Режим смешивания : DVD-Video

    Текст #3
    Идентификатор : 189 (0xBD)-34 (0x22)
    Формат : RLE
    Формат/Информация : Run-length encoding
    Режим смешивания : DVD-Video

    Текст #4
    Идентификатор : 189 (0xBD)-35 (0x23)
    Формат : RLE
    Формат/Информация : Run-length encoding
    Режим смешивания : DVD-Video

    Текст #5
    Идентификатор : 189 (0xBD)-36 (0x24)
    Формат : RLE
    Формат/Информация : Run-length encoding
    Режим смешивания : DVD-Video

    Текст #6
    Идентификатор : 189 (0xBD)-37 (0x25)
    Формат : RLE
    Формат/Информация : Run-length encoding
    Режим смешивания : DVD-Video

    Текст #7
    Идентификатор : 189 (0xBD)-38 (0x26)
    Формат : RLE
    Формат/Информация : Run-length encoding
    Режим смешивания : DVD-Video

    Меню
Свернуть
Знаете ли Вы, что...
  • На роль Мэтта Уэстона рассматривались Шайа Лабаф, Тейлор Китч, Крис Пайн, Сэм Уортингтон, Гаррет Хедлунд , Зак Эфрон, Ченнинг Татум, Крис Хемсворт и Джейк Джилленхол.
Свернуть
Скриншоты

меню
Изображение
Изображение
Изображение
Изображение
Изображение
Свернуть
Изображение
Изображение
Изображение
Изображение
Свернуть
Не в сети
Профиль  
 Добавлено: 2012-06-15 18:51 (спустя 7 дней)
Кинокомментатор
Аватара пользователя
Стаж: 9 лет 1 месяц
Сообщений: 1332
Лайков: 54
на мой взгляд фильм должен заслуживать куда большую оценку, чем она есть. всё интересно, динамично, стильно... пусть и довольно стандартно, как и все фильмы про агентов:)
в общем нового не увидите, но кино интересное!)
7,7/10
_________________
Я ВКонтакте
Не в сети
Профиль  
Начать новую темуОтветить на тему  [ Сообщений: 2 ] 
Вы не можете начинать темы
Вы не можете отвечать на сообщения
Вы не можете редактировать свои сообщения
Вы не можете удалять свои сообщения