Правила форума

  • В этом разделе создание новых тем Запрещено.
  • Для создания новых тем пользуйтесь Корневым разделом DVD и HD фильмы.
Начать новую темуОтветить на тему  [ Сообщений: 9 ] 
Торрент файл
Размер: 7.46 GB • Зарегистрирован: 5 лет 6 месяцев • Статус: Проверено
Скачан: 148 раз • Желающих скачать: 0 • Поблагодарили: 29 раз
 Раздают: 0  |  0 KB/s  ]   Качают: 0  |  0 KB/s  ] 
 Полного источника не было 1 год 3 месяца 
Сообщения
 Добавлено: 2011-05-29 12:21
Аватара пользователя
Стаж: 8 лет 6 месяцев
Возраст: 38
Сообщений: 1674
Спасибок: 16600
Лайков: 5
Изображение
Кокаин
Blow

Страна: США
Жанр: драма, криминал, биография
Год выпуска: 2001
Продолжительность: 02:03:26

Перевод: профессиональный (многоголосый закадровый); профессиональный (дублированный)
Cубтитры: русские, английские

Режиссер: Тед Демме / Ted Demme
В ролях: Джонни Депп (Джордж Джанг), Пенелопа Крус (Мирта Джанг), Франка Потенте (Барбара), Рэйчел Гриффитс (Эрмина Джанг), Пол Рубенс (Дерек Форелл), Жорди Молья (Диего Дельгадо), Клифф Кёртис (Пабло Эскобар), Мигель Сандоваль (Августо Оливерас), Этан Сапли (Тунец), Рэй Лиотта (Фред Джанг)

Описание: Джордж Джанг, обыкновенный парень из пригорода, решил осуществить американскую мечту своим способом — стать первым американцем, импортирующим кокаин в больших объемах. Он создал себе рынок сбыта, подсадив на кокаин самых знаменитых людей Америки. Вскоре он уже купался в деньгах и роскоши, о которых многие только мечтают. Ему удавалось обводить вокруг пальца не только ФБР, но и страшных колумбийских наркодельцов. Однако настоящий кайф он получал от опасности и риска, нуждаясь в адреналине больше чем в наркотиках.

IMDb 7.4/10 (78,863 votes)
КиноПоиск 8.058 (29 729) Top 250#196

  • В процессе подготовки к съемкам Джонни Депп провел несколько дней вместе с Джорджем Джангом в исправительном заведении.
  • Во время съемок «Кокаина» Джонни Депп поразил Пенелопу Круз своим потрясающим чувством юмора. Так во время наиболее драматических сцен, когда Пенелопа заламывая руки читала монологи, Джонни издавал неприличные звуки, после которых съемку приходилось прерывать до тех пор, пока съемочная группа не просмеется.
  • Весь процесс съемок проходил под неусыпным контролем полиции, следящих за каждым шагом актеров. Во избежание того, чтобы ни у кого из актеров не возникло желание для большей реалистичности воспользоваться белым порошком вместо разрешенного.
  • На территории США, в нескольких штатах, фильм был запрещен для публичного проката. Причина наличие в фильме сцен насилия и пропаганды наркотиков.
  • В нелегальном бизнесе Пабло Эскобара участвовали такие лица, как бывший панамский диктатор Мануэль Антонио Норьега и бывший глава разведывательной службы Перу Владимиро Монтесинос. Сам Пабло Эскобар погиб в 1993 в перестрелке с полицией. По некоторым данным, спецслужбы продолжают поиски Пабло Эскобара, предположительно нашедшего убежище в одном из городов восточных штатов.


Тип релиза: DVD9 (Custom) Семпл
Контейнер: DVD-Video
Видео: NTSC 16:9 (720x480) VBR, Auto Letterboxed, ~6274 Кбит/сек
Аудио#1: DTS, 768 Kbps, 48.0 KHz [русский, многоголосый закадровый#1]
Аудио#2: AC-3, 3/2ch, 448 Kbps, 48.0 KHz, 5.1 DD [Оригинальный английский]
Аудио#3: AC-3, 3/2ch, 448 Kbps, 48.0 KHz, 5.1 DD [русский, многоголосый закадровый#2]
Аудио#4: AC-3 , 2.0, 48KHz , 192 kbps [русский, дублированный]

Описание изготовления релиза
Диск создан полностью с нуля на основе Blu-ray (45.36 GB)
Видео сжато в 2 проходов с помощью программы Cinema Craft Encoder SP3, индексатор - FFMpegSource2.
Аудиодорожки, субтитры, тайминг и названия глав, а также дизайн меню взяты с Blu-ray-издания.
Меню озвученное, полностью анимированное, на русском языке, с навигацией по эпизодам. Все кнопки функциональны.
Точка перехода на второй слой выставлена.

Свернуть
Бриф по изготовлению DVD
  • Видео
    Cinema Craft Encoder SP3 - конвертация видео
    AviSynth - обработка видео
    FFMpegSource2 - индексирование
  • Програмы для разборки/сборки ДВД
    eac3to - демукс видео с последующим муксом в MKV
    DVD-lab PRO - компиляция DVD
  • Работа со звуком
    eac3to - разборка оригинальных дорожек
    Minnetonka Surcode DVD-DTS Pro Encoder - сборка ДТС
    Vegas Pro 9.0 - сборка АС3 дорожек
  • Работа с субтитрами
    SupRip - распознавание и перевод субтитров из формата БД в текстовый формат.
    DVD-lab PRO - создание потоков субтитров
  • Работа с меню и реавторинг
    DVD-lab PRO - разработка и создание оригинального меню
Свернуть
DVDInfo
Title: Кокаин
Size: 7.46 Gb ( 7 823 516,00 KBytes ) - DVD-9
Enabled regions: 1, 2, 3, 4, 5, 6, 7, 8

VTS_01 :
Play Length: 02:03:19+00:00:07
Video: NTSC 16:9 (720x480) VBR, Auto Letterboxed
Audio:
Russian (DTS, 6 ch)
English (Dolby AC3, 6 ch)
Russian (Dolby AC3, 6 ch)
Russian (Dolby AC3, 2 ch)
Subtitles:
Russian
English

* Menus Information *

VIDEO_TS Menu
Video:
NTSC 4:3 (720x480) VBR
English Language Unit :
Title Menu

VTS_01 Menu
Video:
NTSC 16:9 (720x480) VBR
Auto Letterboxed
Audio:
Not specified (Dolby AC3, 2 ch)
English Language Unit :
Root Menu

Свернуть
MediaInfo
Общее
Полное имя : C:\BD to DVD\Кокаин\VIDEO_TS\VTS_01_1.VOB
Формат : MPEG-PS
Размер файла : 1000 Мбайт
Продолжительность : 16 м.
Общий поток : 8281 Кбит/сек

Видео
Идентификатор : 224 (0xE0)
Формат : MPEG Video
Версия формата : Version 2
Профиль формата : Main@Main
Параметр BVOP формата : Да
Параметр матрицы формата : По умолчанию
Продолжительность : 16 м.
Вид битрейта : Переменный
Битрейт : 6274 Кбит/сек
Номинальный битрейт : 9800 Кбит/сек
Ширина : 720 пикс.
Высота : 480 пикс.
Соотношение сторон : 16:9
Частота кадров : 23,976 кадр/сек
Стандарт вещания : NTSC
Цветовое пространство : YUV
Подвыборка цветности : 4:2:0
Битовая глубина : 8 бит
Тип развёртки : Прогрессивная
Порядок развёртки : 2:3 Pulldown
Метод сжатия : С потерями
Бит/(Пиксели*Кадры) : 0.757
Размер потока : 758 Мбайт (76%)

Аудио #1
Идентификатор : 189 (0xBD)-129 (0x81)
Формат : AC-3
Формат/Информация : Audio Coding 3
Расширение режима : CM (complete main)
Режим смешивания : DVD-Video
Продолжительность : 16 м.
Вид битрейта : Постоянный
Битрейт : 448 Кбит/сек
Канал(ы) : 6 канала(ов)
Расположение каналов : Front: L C R, Side: L R, LFE
Частота : 48,0 КГц
Битовая глубина : 16 бит
Метод сжатия : С потерями
Размер потока : 54,1 Мбайт (5%)

Аудио #2
Идентификатор : 189 (0xBD)-130 (0x82)
Формат : AC-3
Формат/Информация : Audio Coding 3
Расширение режима : CM (complete main)
Режим смешивания : DVD-Video
Продолжительность : 16 м.
Вид битрейта : Постоянный
Битрейт : 448 Кбит/сек
Канал(ы) : 6 канала(ов)
Расположение каналов : Front: L C R, Side: L R, LFE
Частота : 48,0 КГц
Битовая глубина : 16 бит
Метод сжатия : С потерями
Размер потока : 54,1 Мбайт (5%)

Аудио #3
Идентификатор : 189 (0xBD)-131 (0x83)
Формат : AC-3
Формат/Информация : Audio Coding 3
Расширение режима : CM (complete main)
Режим смешивания : DVD-Video
Продолжительность : 16 м.
Вид битрейта : Постоянный
Битрейт : 192 Кбит/сек
Канал(ы) : 2 канала(ов)
Расположение каналов : Front: L R
Частота : 48,0 КГц
Битовая глубина : 16 бит
Метод сжатия : С потерями
Размер потока : 23,2 Мбайт (2%)

Аудио #4
Идентификатор : 189 (0xBD)-136 (0x88)
Формат : DTS
Формат/Информация : Digital Theater Systems
Режим смешивания : DVD-Video
Продолжительность : 16 м.
Вид битрейта : Постоянный
Битрейт : 755 Кбит/сек
Канал(ы) : 6 канала(ов)
Расположение каналов : Front: L C R, Side: L R, LFE
Частота : 48,0 КГц
Битовая глубина : 24 бит
Метод сжатия : С потерями
Размер потока : 91,1 Мбайт (9%)

Меню

Свернуть
Скриншоты
Скриншоты меню
Изображение

Изображение

Изображение

Свернуть
Скриншоты фильма
Изображение

Изображение

Изображение

Изображение

Изображение

Изображение

Изображение

Изображение

Изображение

Изображение

Изображение

Изображение

Изображение

Изображение

Свернуть
Свернуть


Проверено на PowerDVD10. Записано программой ImgBurn. Подробная инструкция.
Точка перехода на второй слой выставлена
Не в сети
Профиль  
 Добавлено: 2011-05-29 12:29 (спустя 7 минут)
Аватара пользователя
Стаж: 8 лет 3 месяца
Возраст: 43
Сообщений: 3290
Спасибок: 21012
Лайков: 3
На неделю в Объявления :co_ol:
_________________
Изображение
Не в сети
Профиль  
 Добавлено: 2011-05-29 15:21 (спустя 2 часа 52 минуты)
Аватара пользователя
Стаж: 8 лет 10 месяцев
Сообщений: 95
Спасибок: 1
мега респект!!! огромное спасибо!!!
+1
Не в сети
Профиль  
 Добавлено: 2011-05-31 02:30 (спустя 1 день 11 часов)
Стаж: 7 лет 1 месяц
Сообщений: 6
заценю и отпишусь :)
Не в сети
Профиль  
 Добавлено: 2011-06-01 17:05 (спустя 1 день 14 часов)
Аватара пользователя
Стаж: 6 лет 4 месяца
Возраст: 25
Сообщений: 50
Классный фильм! Всем рекомендую!!
Не в сети
Профиль  
 Добавлено: 2011-06-02 10:49 (спустя 17 часов)
Аватара пользователя
Стаж: 8 лет 10 месяцев
Сообщений: 95
Спасибок: 1
Bearn, дубляж сам клеил или такой был?
Не в сети
Профиль  
 Добавлено: 2011-06-02 17:06 (спустя 6 часов)
Аватара пользователя
Стаж: 8 лет 6 месяцев
Возраст: 38
Сообщений: 1674
Спасибок: 16600
Лайков: 5
Дубляж брал с Blu-ray. Никаких операций не производил.
А что не так?
Сам пересматривал в дублированном переводе - кстати очень качественно сделанном - никаких проблем не заметил.
Не в сети
Профиль  
 Добавлено: 2011-06-08 22:38 (спустя 6 дней)
Аватара пользователя
Стаж: 8 лет 10 месяцев
Сообщений: 95
Спасибок: 1
проблем нету и я знаю такой перевод, жаль лишь, что не в 5,1
Не в сети
Профиль  
 Добавлено: 2011-09-25 19:07 (спустя 3 месяца 16 дней)
Аватара пользователя
Стаж: 7 лет 11 месяцев
Возраст: 29
Сообщений: 11
Ребят, дайте скорости. :bra_vo:
Не в сети
Профиль  
Начать новую темуОтветить на тему  [ Сообщений: 9 ] 
Вы не можете начинать темы
Вы не можете отвечать на сообщения
Вы не можете редактировать свои сообщения
Вы не можете удалять свои сообщения