Правила форума

  • В этом разделе создание новых тем Запрещено.
  • Для создания новых тем пользуйтесь Корневым разделом DVD и HD фильмы.
Начать новую темуОтветить на тему  [ 1 сообщение ] 
Торрент файл
Размер: 4.36 GB • Зарегистрирован: 4 года 10 месяцев • Статус: Проверено
Скачан: 23 раза • Желающих скачать: 0 • Поблагодарили: 5 раз
 Раздают: 0  |  0 KB/s  ]   Качают: 0  |  0 KB/s  ] 
 Полного источника не было 3 года 2 месяца 
Сообщения
 Добавлено: 2012-01-11 18:10
Книголюб
Аватара пользователя
Стаж: 7 лет 2 месяца
Сообщений: 2823
Спасибок: 48830
Лайков: 73
Колыбельная
Kolysanka

Изображение


Год выпуска: 2010
Страна: Польша (Monolith Films)
Жанр: фэнтези, комедия
Продолжительность: 01:35:19
Перевод: Профессиональный (одноголосый закадровый) BBC Saint-Petersburg

Режиссёр: Юлиуш Махульский
В ролях: Роберт Вечкевич, Малгожата Бучковска, Пжемыслав Блущ, Изабелла Дабровска, Кшиштоф Кершновский, Александра Кисио, Яцек Коман, Катарзина Квятковска, Мацей Марчевский
Описание: Комедия о добропорядочном семействе вампиров, поселившемся в польской глубинке. Проблема в том, что «кушать хочется всегда», и каждый человек, переступивший порог их дома, там и останется…
Мировая премьера: 12 февраля 2010
Изображение 6.678 428

Качество: DVD5
Формат: DVD Video
Видео кодек: MPEG2
Аудио кодек: AC3 (Dolby Digital)
Видео: PAL 16:9 (720x576) 25.00fps 9800kbps 0.314Bits/Pixe
Аудио #1: Russian: 6 ch 448 Kbps 48.0 KHz
Аудио #2: Polish: 2 ch 224 Kbps 48.0 KHz

MediaInfo
General
Complete name : D:\Kolybelnaja.2010.P.DVD\Kolybelnaja.2010.P.DVD\VIDEO_TS\VTS_01_3.VOB
Format : MPEG-PS
File size : 1 018 MiB
Duration : 31mn 51s
Overall bit rate mode : Variable
Overall bit rate : 4 469 Kbps

Video
ID : 224 (0xE0)
Format : MPEG Video
Format version : Version 2
Format profile : Main@Main
Format settings, BVOP : Yes
Format settings, Matrix : Custom
Format settings, GOP : M=3, N=12
Duration : 31mn 51s
Bit rate mode : Variable
Bit rate : 3 260 Kbps
Maximum bit rate : 9 800 Kbps
Width : 720 pixels
Height : 576 pixels
Display aspect ratio : 16:9
Frame rate : 25.000 fps
Standard : PAL
Color space : YUV
Chroma subsampling : 4:2:0
Bit depth : 8 bits
Scan type : Interlaced
Scan order : Top Field First
Compression mode : Lossy
Bits/(Pixel*Frame) : 0.314
Stream size : 743 MiB (73%)

Audio #1
ID : 189 (0xBD)-128 (0x80)
Format : AC-3
Format/Info : Audio Coding 3
Mode extension : CM (complete main)
Muxing mode : DVD-Video
Duration : 31mn 51s
Bit rate mode : Constant
Bit rate : 448 Kbps
Channel(s) : 6 channels
Channel positions : Front: L C R, Side: L R, LFE
Sampling rate : 48.0 KHz
Bit depth : 16 bits
Compression mode : Lossy
Delay relative to video : -600ms
Stream size : 102 MiB (10%)

Audio #2
ID : 189 (0xBD)-129 (0x81)
Format : AC-3
Format/Info : Audio Coding 3
Mode extension : CM (complete main)
Muxing mode : DVD-Video
Duration : 31mn 51s
Bit rate mode : Constant
Bit rate : 224 Kbps
Channel(s) : 2 channels
Channel positions : Front: L R
Sampling rate : 48.0 KHz
Bit depth : 16 bits
Compression mode : Lossy
Delay relative to video : -536ms
Stream size : 51.0 MiB (5%)

Audio #3
ID : 189 (0xBD)-130 (0x82)
Format : AC-3
Format/Info : Audio Coding 3
Mode extension : CM (complete main)
Muxing mode : DVD-Video
Duration : 31mn 51s
Bit rate mode : Constant
Bit rate : 448 Kbps
Channel(s) : 6 channels
Channel positions : Front: L C R, Side: L R, LFE
Sampling rate : 48.0 KHz
Bit depth : 16 bits
Compression mode : Lossy
Delay relative to video : -600ms
Stream size : 102 MiB (10%)

Text #1
ID : 189 (0xBD)-32 (0x20)
Format : RLE
Format/Info : Run-length encoding
Muxing mode : DVD-Video
Delay relative to video : 6s 600ms

Text #2
ID : 189 (0xBD)-33 (0x21)
Format : RLE
Format/Info : Run-length encoding
Muxing mode : DVD-Video
Delay relative to video : 840ms

Menu


Свернуть

Скриншоты
Изображение
Изображение
Изображение
Изображение
Свернуть
Не в сети
Профиль  
Начать новую темуОтветить на тему  [ 1 сообщение ] 
Вы не можете начинать темы
Вы не можете отвечать на сообщения
Вы не можете редактировать свои сообщения
Вы не можете удалять свои сообщения