Правила форума

  • В этом разделе создание новых тем Запрещено.
  • Для создания новых тем пользуйтесь Корневым разделом DVD и HD фильмы.
Начать новую темуОтветить на тему  [ 1 сообщение ] 
Торрент файл
Размер: 4.37 GB • Зарегистрирован: 3 года 10 месяцев • Статус: Проверено
Скачан: 58 раз • Желающих скачать: 0 • Поблагодарили: 25 раз
 Раздают: 0  |  0 KB/s  ]   Качают: 0  |  0 KB/s  ] 
 Полного источника не было 2 года 7 месяцев 
Сообщения
 Добавлено: 2013-01-28 12:43
Модератор релиз-группы
Аватара пользователя
Стаж: 6 лет 5 месяцев
Возраст: 25
Сообщений: 622
Спасибок: 10258
Лайков: 7
Коллекционер 2 / The Collection

Изображение


Год выпуска: 2012
Страна: США
Слоган: «Не попади в его коллекцию»
Жанр: Ужасы, боевик, триллер
Продолжительность: 01:18:22
Перевод: Профессиональный (полное дублирование)
Субтитры: Русские

Режиссёр: Маркус Данстэн
В ролях: Джош Стюарт, Эмма Фитцпатрик, Кристофер МакДональд, Ли Тергесен, Тим Гриффин
Описание: Аркину чудесным образом удалось выбраться из смертельных ловушек, расставленных по дому загадочным Коллекционером. Он был уверен, что больше никогда в жизни не встретится с этим маньяком, но судьба распоряжается иначе. Весьма состоятельный джентльмен просит его войти в состав специальной команды, которой предстоит вызволить из лап Коллекционера свою дочь. Так Аркин вновь попадает в мрачные лабиринты, где то и дело приходят в действие потаенные механизмы, умертвляющие незваных посетителей…
Изображение 6.2/10 (3,320 votes)
Изображение 6.7/10 (3,167 votes)
Раздача группы: Изображение
Качество: DVD5 (сжатый) R5
Формат: DVD Video
Видео кодек: MPEG2
Аудио кодек: AC3
Видео: MPEG-2, 720x576@1024x576 (PAL 16:9), ~7300 kbps, Bit/Pixel: 0.711
Аудио 1: AC3 5.1, 384 kbps [Русский - дублированный]
Аудио 2: AC3 5.1, 384 kbps [Английский - оригинал]
"Дополнительные материалы..."
Отсутствуют...
Свернуть

"Создание релиза"
Исходник: Коллекционер 2 / The Collection (2012) DVD9 (R5)
Удалены: предупреждения и заставки, русская AC3 2.0 аудиодорожка.
Видео сжато: сжатие конечных титров на 70%, сжатие самого фильма примерно на 14%.
Меню: статичное, недействующие кнопки затерты и закрыты.
Обработка и сжатие: DVD ReMake Pro + DVD Rebuilder + CCE SP2 1.00.01.09 [7 проходов] + Работа с меню (Adobe PhotoShop и MuxMan).
Свернуть

"DVDInfo"
Title: Kollekcioner.2.2012.DVD5
Size: 4.37 Gb ( 4 579 926 KBytes ) - DVD-5
Enabled regions: 1, 2, 3, 4, 5, 6, 7, 8

VTS_01 :
Play Length: 00:00:01+01:18:22
Video: PAL 16:9 (720x576) VBR, Auto Pan&Scan
Audio:
Russian (Dolby AC3, 6 ch)
English (Dolby AC3, 6 ch)
Subtitles:
Russian
Свернуть

"MediaInfo"
Полное имя : D:\Kollekcioner.2.2012.DVD5\VIDEO_TS\VTS_01_2.VOB
Формат : MPEG-PS
Размер файла : 1024 Мбайт
Продолжительность : 17 м.
Режим общего битрейта : Переменный
Общий поток : 8303 Кбит/сек

Видео
Идентификатор : 224 (0xE0)
Формат : MPEG Video
Версия формата : Version 2
Профиль формата : Main@Main
Параметр BVOP формата : Да
Параметр матрицы формата : Выборочная
Продолжительность : 17 м.
Вид битрейта : Переменный
Битрейт : 7369 Кбит/сек
Максимальный битрейт : 8904 Кбит/сек
Ширина : 720 пикселей
Высота : 576 пикселей
Соотношение сторон : 16:9
Частота кадров : 25,000 кадров/сек
Стандарт вещания : PAL
Цветовое пространство : YUV
Субдискретизация насыщенности : 4:2:0
Битовая глубина : 8 бит
Тип развёртки : Чересстрочная
Порядок развёртки : Верхнее поле первое
Метод сжатия : С потерями
Бит/(Пиксели*Кадры) : 0.711
Размер потока : 909 Мбайт (89%)

Аудио #1
Идентификатор : 189 (0xBD)-128 (0x80)
Формат : AC-3
Формат/Информация : Audio Coding 3
Расширение режима : CM (complete main)
Параметр Endianness формата : Big
Режим смешивания : DVD-Video
Продолжительность : 17 м.
Вид битрейта : Постоянный
Битрейт : 384 Кбит/сек
Каналы : 6 каналов
Расположение каналов : Front: L C R, Side: L R, LFE
Частота : 48,0 КГц
Битовая глубина : 16 бит
Метод сжатия : С потерями
Задержка видео : -320 мс.
Размер потока : 47,4 Мбайт (5%)

Аудио #2
Идентификатор : 189 (0xBD)-130 (0x82)
Формат : AC-3
Формат/Информация : Audio Coding 3
Расширение режима : CM (complete main)
Параметр Endianness формата : Big
Режим смешивания : DVD-Video
Продолжительность : 17 м.
Вид битрейта : Постоянный
Битрейт : 384 Кбит/сек
Каналы : 6 каналов
Расположение каналов : Front: L C R, Side: L R, LFE
Частота : 48,0 КГц
Битовая глубина : 16 бит
Метод сжатия : С потерями
Задержка видео : -320 мс.
Размер потока : 47,4 Мбайт (5%)

Текст
Идентификатор : 189 (0xBD)-32 (0x20)
Формат : RLE
Формат/Информация : Run-length encoding
Режим смешивания : DVD-Video

Меню

Свернуть

"Log-файл DVD-Rebuilder-а"
[14:31:11] Phase I, PREPARATION started.
- DVD-RB v1.28.2
- AVISYNTH 2.6.0.3
- CCE 1.0.1.9 encoder selected.
- "Adaptive Quantizer Matrices" is enabled.
- Source: !!!
- VTS_01: 2 705 614 sectors.
-- Scanning and writing .D2V & .AVS files
-- Processed 117 592 frames.
-- Building .AVS and .ECL files
- Reduction Level for DVD-5: 81,8%
- Overall Bitrate : 7 042Kbs
- Space for Video : 4 043 338KB
- HIGH/LOW/TYPICAL Bitrates: 7 045/1 229/7 042 Kbs
[14:34:43] Phase I, PREPARATION completed in 3 minutes.
[14:39:00] Phase II ENCODING started
- Creating M2V for VTS_01 segment 0
- Creating M2V for VTS_01 segment 1
- Creating M2V for VTS_01 segment 2
- Creating M2V for VTS_01 segment 3
- Creating M2V for VTS_01 segment 4
- Creating M2V for VTS_01 segment 5
- Creating M2V for VTS_01 segment 6
- Creating M2V for VTS_01 segment 7
- Creating M2V for VTS_01 segment 8
- Creating M2V for VTS_01 segment 9
- Creating M2V for VTS_01 segment 10
- Creating M2V for VTS_01 segment 11
- Creating M2V for VTS_01 segment 12
- Creating M2V for VTS_01 segment 13
- Extracting STILLS for VTS_01 segment 14
- Extracting STILLS for VTS_01 segment 15
[16:35:56] Phase II ENCODING completed in 116 minutes.
[16:36:07] Phase III, REBUILD started.
- Copying IFO, BUP, and unaltered files...
- Processing VTS_01
- Reading/processing TMAP table...
- Rebuilding seg 0 VOBID 1 CELLID 1
- Updating NAVPACKS for VOBID_01
- Rebuilding seg 1 VOBID 2 CELLID 1
- Rebuilding seg 2 VOBID 2 CELLID 2
- Rebuilding seg 3 VOBID 2 CELLID 3
- Rebuilding seg 4 VOBID 2 CELLID 4
- Rebuilding seg 5 VOBID 2 CELLID 5
- Rebuilding seg 6 VOBID 2 CELLID 6
- Rebuilding seg 7 VOBID 2 CELLID 7
- Rebuilding seg 8 VOBID 2 CELLID 8
- Rebuilding seg 9 VOBID 2 CELLID 9
- Rebuilding seg 10 VOBID 2 CELLID 10
- Rebuilding seg 11 VOBID 2 CELLID 11
- Rebuilding seg 12 VOBID 2 CELLID 12
- Rebuilding seg 13 VOBID 2 CELLID 13
- Updating NAVPACKS for VOBID_02
- Rebuilding seg 14 VOBID 3 CELLID 1
- Updating NAVPACKS for VOBID_03
- Rebuilding seg 15 VOBID 4 CELLID 1
- Updating NAVPACKS for VOBID_04
- Updated VTS_C_ADT.
- Updated VTS_VOBU_ADMAP.
- Updated IFO: VTS_01_0.IFO
- Updating TMAP table...
- Correcting VTS Sectors...
[16:44:49] Phase III, REBUILD completed in 8 minutes.

Done.
Свернуть

"Скриншоты меню..."
Изображение
Изображение
Изображение
Свернуть

"Скриншоты"
Изображение
Изображение
Изображение
Изображение
Изображение
Изображение
Изображение
Изображение
Свернуть
_________________
Изображение
Не в сети
Профиль  
Начать новую темуОтветить на тему  [ 1 сообщение ] 
Вы не можете начинать темы
Вы не можете отвечать на сообщения
Вы не можете редактировать свои сообщения
Вы не можете удалять свои сообщения