Правила форума

  • В этом разделе создание новых тем Запрещено.
  • Для создания новых тем пользуйтесь Корневым разделом DVD и HD фильмы.
Начать новую темуОтветить на тему  [ Сообщений: 2 ] 
Торрент файл
Размер: 7.25 GB • Зарегистрирован: 4 года 11 месяцев • Статус: Проверено
Скачан: 123 раза • Желающих скачать: 0 • Поблагодарили: 25 раз
 Раздают: 0  |  0 KB/s  ]   Качают: 0  |  0 KB/s  ] 
 Полного источника не было 2 года 11 месяцев 
Сообщения
 Добавлено: 2011-12-05 19:43
Аватара пользователя
Стаж: 5 лет 5 месяцев
Возраст: 30
Сообщений: 353
Спасибок: 7455
Конан-варвар / Conan the Barbarian

Изображение


Год выпуска: 2011
Страна: США (Nu Image Films, Millennium Films, Paradox Entertainment)
Слоган: «Легенда возрождается»
Жанр: фэнтези, боевик, приключения
Продолжительность: 01:47:48
Перевод: Профессиональный (дубляж)
Дублеры: Владимир Антоник, Борис Токарев, Людмила Шувалова, Ирина Киреева, Александр Новиков + Профессиональный (дубляж)
Дублеры: Владимир Антоник, Борис Токарев, Людмила Шувалова, Ирина Киреева, Александр Новиков + Оригинальная звуковая дорожка
Субтитры: Русские

Режиссёр: Маркус Ниспел / Marcus Nispel
Сценарист: Томас Дин Доннелли, Джошуа Оппенхаймер, Шон Худ
Продюсер: Джон Балдеччи, Фредерик Малмберг, Лес Уэлдон
Оператор: Томас Клосс
Композитор: Тайлер Бейтс

В ролях: Джейсон Момоа, Рон Перлман, Стивен Лэнг, Рейчел Николс, Роуз МакГоун, Боб Сапп, Лео Ховард, Стив О’Доннелл, Нонсо Анози, Раад Рави

Описание: Природа наделила его силой. Гибель отца сделала его свирепым. Великий киммерийский воин Конан отправляется в дальнее странствие, чтобы совершить отмщение за кровь своего рода. Но поиски, которые начинаются как личная вендетта, вскоре оборачиваются эпической схваткой со сверхъестественными силами, поработившими народы великой Хайбории. Киммерийский воин — последняя надежда на спасение…

Доп.информация: Скоро на DVD, фильм о фильме, интервью с создателями и исполнителями
Мировая премьера: 14 августа 2011
Премьера в России: 18 августа 2011, «Парадиз», «Наше Кино» 3D
Бюджет: $90 000 000
Кассовые сборы: + $27 500 000 = $48 795 021

Изображение Изображение Изображение

Качество: DVD9 R5
Формат: DVD Video
Видео кодек: MPEG2
Аудио кодек: AC3 (Dolby Digital)
Видео: PAL 16:9 (720x576(0.517)) MPEG Video, 25,000 кадр/сек, 5357 Кбит/сек
Аудио #1: Russian (Dolby AC3, 6 ch) 384 Кбит/сек, 48,0 КГц [Профессиональный (дубляж)]
Аудио #2: Russian (Dolby AC3, 2 ch) 192 Кбит/сек, 48,0 КГц [Профессиональный (дубляж)]
Аудио #3: English (Dolby AC3, 6 ch) 384 Кбит/сек, 48,0 КГц [Оригинальная звуковая дорожка]
Субтитры: Русские

"DVDInfo"
Title: Рабочий
Size: 7.25 Gb ( 7 598 308 KBytes ) - DVD-9
Enabled regions: 1, 2, 3, 4, 5, 6, 7, 8

VTS_01 :
Play Length: 00:00:01+01:47:47
Video: PAL 16:9 (720x576) VBR, Auto Letterboxed
Audio:
Russian (Dolby AC3, 6 ch)
Russian (Dolby AC3, 2 ch)
English (Dolby AC3, 6 ch)
Subtitles:
Russian

VTS_02 :
Play Length: 00:00:01+00:00:11
Video: PAL 16:9 (720x576) VBR, Auto Letterboxed
Audio:
Russian (Dolby AC3, 2 ch)

VTS_03 :
Play Length: 00:00:01+00:00:17
Video: PAL 16:9 (720x576) VBR, Auto Letterboxed
Audio:
Russian (Dolby AC3, 2 ch)

VTS_04 :
Play Length: 00:00:01+00:11:30
Video: PAL 16:9 (720x576) VBR, Auto Letterboxed
Audio:
Russian (Dolby AC3, 2 ch)

VTS_05 :
Play Length: 00:00:01+00:18:11+00:36:31
Video: PAL 16:9 (720x576) VBR, Auto Letterboxed
Audio:
Russian (Dolby AC3, 2 ch)

Свернуть

"MediaInfo"
Общее
Полное имя : G:\Новинки 2011\Konan-varvar.2011.DVD9\VIDEO_TS\VTS_01_2.VOB
Формат : MPEG-PS
Размер файла : 1024 Мбайт
Продолжительность : 22 м.
Общий поток : 6445 Кбит/сек

Видео
Идентификатор : 224 (0xE0)
Формат : MPEG Video
Версия формата : Version 2
Профиль формата : Main@Main
Параметр BVOP формата : Да
Параметр матрицы формата : Выборочная
Параметр GOP формата : M=3, N=15
Продолжительность : 22 м.
Вид битрейта : Переменный
Битрейт : 5357 Кбит/сек
Максимальный битрейт : 8500 Кбит/сек
Ширина : 720 пикселей
Высота : 576 пикселей
Соотношение сторон : 16:9
Частота кадров : 25,000 кадров/сек
Стандарт вещания : PAL
Цветовое пространство : YUV
Субдискретизация насыщенности : 4:2:0
Битовая глубина : 8 бит
Тип развёртки : Чересстрочная
Порядок развёртки : Верхнее поле первое
Метод сжатия : С потерями
Бит/(Пиксели*Кадры) : 0.517
Размер потока : 851 Мбайт (83%)

Аудио #1
Идентификатор : 189 (0xBD)-128 (0x80)
Формат : AC-3
Формат/Информация : Audio Coding 3
Расширение режима : CM (complete main)
Режим смешивания : DVD-Video
Продолжительность : 22 м.
Вид битрейта : Постоянный
Битрейт : 384 Кбит/сек
Каналы : 6 каналов
Расположение каналов : Front: L C R, Side: L R, LFE
Частота : 48,0 КГц
Битовая глубина : 16 бит
Метод сжатия : С потерями
Задержка видео : -568 мс.
Размер потока : 61,0 Мбайт (6%)

Аудио #2
Идентификатор : 189 (0xBD)-129 (0x81)
Формат : AC-3
Формат/Информация : Audio Coding 3
Расширение режима : CM (complete main)
Режим смешивания : DVD-Video
Продолжительность : 22 м.
Вид битрейта : Постоянный
Битрейт : 192 Кбит/сек
Каналы : 2 канала
Расположение каналов : Front: L R
Частота : 48,0 КГц
Битовая глубина : 16 бит
Метод сжатия : С потерями
Задержка видео : -504 мс.
Размер потока : 30,5 Мбайт (3%)

Аудио #3
Идентификатор : 189 (0xBD)-130 (0x82)
Формат : AC-3
Формат/Информация : Audio Coding 3
Расширение режима : CM (complete main)
Режим смешивания : DVD-Video
Продолжительность : 22 м.
Вид битрейта : Постоянный
Битрейт : 384 Кбит/сек
Каналы : 6 каналов
Расположение каналов : Front: L C R, Side: L R, LFE
Частота : 48,0 КГц
Битовая глубина : 16 бит
Метод сжатия : С потерями
Задержка видео : -568 мс.
Размер потока : 61,0 Мбайт (6%)

Текст
Идентификатор : 189 (0xBD)-32 (0x20)
Формат : RLE
Формат/Информация : Run-length encoding
Режим смешивания : DVD-Video
Продолжительность : 22 м.
Задержка видео : 720 мс.
Свернуть


Скриншоты
Скриншоты меню
Изображение
Изображение
Изображение
Изображение
Свернуть
Изображение
Изображение
Изображение
Изображение
Изображение
Изображение
Изображение
Изображение
Свернуть

Знаете ли Вы, что...
Келлан Латс пробовался на роль Конана.
Свернуть

ИзображениеИзображение
Не в сети
Профиль  
 Добавлено: 2011-12-06 11:12 (спустя 15 часов)
Стаж: 8 лет 7 месяцев
Сообщений: 16
редчайший бред, кино для школьников
Не в сети
Профиль  
Начать новую темуОтветить на тему  [ Сообщений: 2 ] 
Вы не можете начинать темы
Вы не можете отвечать на сообщения
Вы не можете редактировать свои сообщения
Вы не можете удалять свои сообщения