Правила форума

  • В этом разделе создание новых тем Запрещено.
  • Для создания новых тем пользуйтесь Корневым разделом DVD и HD фильмы.
Начать новую темуОтветить на тему  [ Сообщений: 11 ] 
Торрент файл
Размер: 5.45 GB • Зарегистрирован: 4 года 9 месяцев • Статус: Проверено
Скачан: 242 раза • Желающих скачать: 0 • Поблагодарили: 47 раз
 Раздают: 0  |  0 KB/s  ]   Качают: 0  |  0 KB/s  ] 
 Полного источника не было 28 дней 
Сообщения
 Добавлено: 2012-02-20 23:34
Аватара пользователя
Стаж: 5 лет 5 месяцев
Возраст: 30
Сообщений: 353
Спасибок: 7455
Кориолан / Coriolanus

Изображение


Год выпуска: 2011
Страна: Великобритания (Artemis Films, Atlantic Swiss Productions, BBC Films, Hermetof Pictures, Icon Entertainmnet International, Kalkronkie, Lip Sync Productions, Lonely Dragon, Magnolia Mae Inc., Synchronistic Pictures)
Слоган: «Даже зверь понимает кто ему друг»
Жанр: триллер, драма
Продолжительность: 01:58:04
Перевод: Профессиональный (дубляж)
Субтитры: Нет

Режиссёр: Рэйф Файнс / Ralph Fiennes
Сценарист: Джон Логан, Уильям Шекспир
Продюсер: Габриэлла Тана, Джулия Тейлор-Стэнли, Колин Вэйнс
Оператор: Бэрри Экройд
Композитор: Илан Эшкери
В ролях: Рэйф Файнс, Джерард Батлер, Ванесса Редгрейв, Брайан Кокс, Джессика Честейн, Джеймс Несбитт, Лубна Азабаль, Ашраф Бархом, Зоран Чича, Милош Дабич

Описание: Сюжет картины основан на легенде о полководце Гнее Марцие Кориолане, жившем в Риме в пятом веке до нашей эры. Действие картины из Древнего Рима перенесено в наши дни, и вместо мечей главные герои «Кориолана» сжимают в руках автоматы.

Доп.информация: нет
Рейтинг MPAA: Рейтинг R (Подростки до 17 лет допускаются на фильм только в сопровождении одного из родителей)
Мировая премьера: 14 февраля 2011
Премьера в России: 26 января 2012, «Top Film Distribution»

Изображение Изображение Изображение

Качество: DVD9 R5
Формат: DVD Video
Видео кодек: MPEG2
Аудио кодек: AC3 (Dolby Digital)
Видео: PAL 16:9 (720x576(0.607)) MPEG Video, 25,000 кадр/сек, 6293 Кбит/сек
Аудио #1: Russian (Dolby AC3, 6 ch) 384 Кбит/сек, 48,0 КГц [Профессиональный (дубляж)]
Субтитры: Нет

"DVDInfo"
Title:
Size: 5.45 Gb ( 5 718 350 KBytes ) - DVD-9
Enabled regions: 1, 2, 3, 4, 5, 6, 7, 8

VTS_01 :
Play Length: 00:00:10
Video: PAL 16:9 (720x576) VBR, Auto Pan&Scan
Audio:
English (Dolby AC3, 2 ch)

VTS_02 :
Play Length: 01:58:04
Video: PAL 16:9 (720x576) VBR, Auto Pan&Scan
Audio:
Russian (Dolby AC3, 6 ch)

VTS_03 :
Play Length: 00:00:20
Video: PAL 4:3 (720x576) VBR
Audio:
English (Dolby AC3, 2 ch)

VTS_04 :
Play Length: 00:00:08
Video: PAL 4:3 (720x576) VBR

Menu Video:
PAL 4:3 (720x576) VBR
Auto Pan&Scan, Auto Letterboxed
Menu Russian Language Unit :
Root Menu
Chapter (PTT) Menu
Свернуть

"MediaInfo"
Общее
Полное имя : G:\Новинки 2012\Koriolan.2011.DVD9\VIDEO_TS\VTS_02_1.VOB
Формат : MPEG-PS
Размер файла : 1024 Мбайт
Продолжительность : 21 м.
Режим общего битрейта : Переменный
Общий поток : 6813 Кбит/сек

Видео
Идентификатор : 224 (0xE0)
Формат : MPEG Video
Версия формата : Version 2
Профиль формата : Main@Main
Параметр BVOP формата : Да
Параметр матрицы формата : Выборочная
Продолжительность : 21 м.
Вид битрейта : Переменный
Битрейт : 6293 Кбит/сек
Максимальный битрейт : 8000 Кбит/сек
Ширина : 720 пикселей
Высота : 576 пикселей
Соотношение сторон : 16:9
Частота кадров : 25,000 кадров/сек
Стандарт вещания : PAL
Цветовое пространство : YUV
Субдискретизация насыщенности : 4:2:0
Битовая глубина : 8 бит
Тип развёртки : Чересстрочная
Порядок развёртки : Верхнее поле первое
Метод сжатия : С потерями
Бит/(Пиксели*Кадры) : 0.607
Размер потока : 946 Мбайт (92%)

Аудио
Идентификатор : 189 (0xBD)-128 (0x80)
Формат : AC-3
Формат/Информация : Audio Coding 3
Расширение режима : CM (complete main)
Режим смешивания : DVD-Video
Продолжительность : 21 м.
Вид битрейта : Постоянный
Битрейт : 384 Кбит/сек
Каналы : 6 каналов
Расположение каналов : Front: L C R, Side: L R, LFE
Частота : 48,0 КГц
Битовая глубина : 16 бит
Метод сжатия : С потерями
Размер потока : 57,7 Мбайт (6%)

Свернуть

Скриншоты
Скриншоты меню
Изображение
Изображение
Свернуть
Изображение
Изображение
Изображение
Изображение
Изображение
Изображение
Изображение
Изображение
Свернуть

Знаете ли Вы, что...
«Кориолан» поставлен по трагедии Уильяма Шекспира.
В 2000 году Файнс играл Кориолана на сцене Лондона. Актер признался, что был одержим этим персонажем и хотел перенести историю на экран, сделав ее привлекательной для современного зрителя.
Американку Джессику Честейн Файнс пригласил в проект, увидев ее в роли Дездемоны в постановке «Отелло» в Нью-Йорке.
Свернуть

ИзображениеИзображение
Не в сети
Профиль  
 Добавлено: 2012-02-20 23:45 (спустя 10 минут)
Top-releaser
Аватара пользователя
Стаж: 7 лет 3 месяца
Возраст: 25
Сообщений: 1036
Спасибок: 2694
Лайков: 9
voovaz помогу раздать :co_ol:
Не в сети
Профиль  
 Добавлено: 2012-02-21 17:04 (спустя 17 часов)
Аватара пользователя
Стаж: 7 лет
Возраст: 30
Сообщений: 507
Спасибок: 1931
Я в восторге от фильма!!! :co_ol:
_________________
Изображение
Не в сети
Профиль  
 Добавлено: 2012-02-21 21:40 (спустя 4 часа)
Аватара пользователя
Стаж: 8 лет 7 месяцев
Возраст: 37
Сообщений: 126
Спасибок: 759
лицензия на DVD совсем загнулась :ny_tik:
Не в сети
Профиль  
 Добавлено: 2012-02-22 20:55 (спустя 23 часа)
Кинокомментатор
Аватара пользователя
Стаж: 9 лет 1 месяц
Сообщений: 1331
Лайков: 52
ну фильм однозначно достойный! не хватает массовости и каких то ещё современных вещей... но в общем и целом задумка и всё... просто очень чётко показана утрированная политика мира... показаны монстры, без приувелечения, возведённые в ранг героев...
игра актёров великолепна! сюжет? шекспир нормальный сценарист) лексика? привыкаешь) частенько не в тему) но привыкаешь!)
7/10 побольше бы массовости, которая так ярко видна в новостных передачах...
_________________
Я ВКонтакте
Не в сети
Профиль  
 Добавлено: 2012-02-24 17:26 (спустя 1 день 20 часов)
Стаж: 7 лет 2 месяца
Сообщений: 8
Фильм очень и очень порадовал! А то качаешь десять фильмов а посмотреть из них ни одного нельзя! Автору спасибо!
Не в сети
Профиль  
 Добавлено: 2012-02-24 19:46 (спустя 2 часа 20 минут)
Аватара пользователя
Стаж: 7 лет 7 месяцев
Возраст: 35
Сообщений: 45
ЧЁ НА СТОЛЬКО ХОРОШ?
Не в сети
Профиль  
 Добавлено: 2012-02-25 21:20 (спустя 1 день 1 час)
Аватара пользователя
Стаж: 9 лет
Сообщений: 502
Спасибок: 1455
Лайков: 2
Фильм отличный!
Не в сети
Профиль  
 Добавлено: 2012-02-26 07:11 (спустя 9 часов)
Аватара пользователя
Стаж: 7 лет 3 месяца
Возраст: 34
Сообщений: 127
Мммддааа я ожидал лучшего!!
Не в сети
Профиль  
 Добавлено: 2012-02-26 12:12 (спустя 5 часов)
Аватара пользователя
Стаж: 6 лет 11 месяцев
Сообщений: 167
15 минут хватила... беда а не фильм .!!!!!
Не в сети
Профиль  
 Добавлено: 2012-02-28 07:57 (спустя 1 день 19 часов)
Аватара пользователя
Стаж: 8 лет 3 месяца
Сообщений: 120
Спасибок: 1260
Лайков: 10
неочем :-D да еще и в стихотворном варианте
Не в сети
Профиль  
Начать новую темуОтветить на тему  [ Сообщений: 11 ] 
Вы не можете начинать темы
Вы не можете отвечать на сообщения
Вы не можете редактировать свои сообщения
Вы не можете удалять свои сообщения