Правила форума

  • В этом разделе создание новых тем Запрещено.
  • Для создания новых тем пользуйтесь Корневым разделом DVD и HD фильмы.
Начать новую темуОтветить на тему  [ Сообщений: 8 ] 
Торрент файл
Размер: 4.12 GB • Зарегистрирован: 4 года 3 месяца • Статус: Проверено
Скачан: 206 раз • Желающих скачать: 0 • Поблагодарили: 30 раз
 Раздают: 0  |  0 KB/s  ]   Качают: 0  |  0 KB/s  ] 
 Полного источника не было 3 года 2 месяца 
Сообщения
 Добавлено: 2012-09-03 21:37
Аватара пользователя
Стаж: 5 лет 5 месяцев
Возраст: 30
Сообщений: 353
Спасибок: 7455
Космополис / Cosmopolis

Изображение


Год выпуска: 2012
Страна: Франция, Канада, Португалия, Италия (Alfama Films, Canal+ [fr], France 2 Cinéma, Kinology, Leopardo Filmes, Prospero Pictures, Radiotelevisão Portuguesa (RTP), Rai Cinema, Téléfilm Canada, Talandracas)
Жанр: триллер, драма
Продолжительность: 01:44:29
Перевод: Профессиональный (дубляж)
Субтитры: Нет

Режиссёр: Дэвид Кроненберг / David Cronenberg
Сценарист: Дэвид Кроненберг, Дон ДеЛилло
Продюсер: Паулу Бранку, Мартин Кац, Джозеф Боччиа
Оператор: Питер Сушицки
Композитор: Говард Шор
В ролях: Роберт Паттинсон, Жюльет Бинош, Сара Гадон, Матье Амальрик, Джей Барушель, Кевин Дюран, К’Наан, Эмили Хэмпшир, Саманта Мортон, Пол Джаматти

Описание: 24 часа из жизни 28-летнего миллиардера-финансиста Эрика Пэкера, который изменяет своей молодой жене, подвергается нападению и разом теряет все свое состояние. Действие ленты будет разворачиваться на Манхэттене в течение одних суток.

Доп.информация: нет
Рейтинг MPAA: Рейтинг R (Подростки до 17 лет допускаются на фильм только в сопровождении одного из родителей)
Мировая премьера: 25 мая 2012
Премьера в России: 19 июля 2012, «Top Film Distribution»
Бюджет: $20 500 000
Кассовые сборы: $3 354 064

Изображение Изображение Изображение

Качество: DVD5 R5
Формат: DVD Video
Видео кодек: MPEG2
Аудио кодек: AC3 (Dolby Digital)
Видео: PAL 16:9 (720x576(0.497)) MPEG Video, 25,000 кадр/сек, 5155 Кбит/сек
Аудио #1: Russian (Dolby AC3, 6 ch) 384 Кбит/сек, 48,0 КГц [Профессиональный (дубляж)]
Субтитры: Нет

"DVDInfo"
Title: Kosmopolis.2012.DVD5
Size: 4.12 Gb ( 4 321 756,00 KBytes ) - DVD-5
Enabled regions: 1, 2, 3, 4, 5, 6, 7, 8

VTS_01 :
Play Length: 01:44:29
Video: PAL 16:9 (720x576) VBR, Auto Letterboxed
Audio:
Russian (Dolby AC3, 6 ch)

VTS_02 :
Play Length: 00:00:20
Video: PAL 4:3 (720x576) VBR
Audio:
English (Dolby AC3, 2 ch)

VTS_03 :
Play Length: 00:00:08
Video: PAL 4:3 (720x576) VBR

VTS_04 :
Play Length: 00:00:30+00:00:05
Video: PAL 16:9 (720x576) VBR, Auto Letterboxed
Audio:
English (Dolby AC3, 2 ch)

* Menus Information *

VIDEO_TS Menu
Video:
NTSC 4:3 (720x480) VBR
Auto Pan&Scan, Auto Letterboxed
Russian Language Unit :
Title Menu

VTS_01 Menu
Video:
PAL 16:9 (720x576) VBR
Auto Letterboxed
Audio:
Not specified (Dolby AC3, 2 ch)
Russian Language Unit :
Root Menu
Chapter (PTT) Menu

VTS_02 Menu
Video:
NTSC 4:3 (720x480) VBR
Auto Pan&Scan, Auto Letterboxed
Language Unit :
Chapter (PTT) Menu

VTS_03 Menu
Video:
NTSC 4:3 (720x480) VBR
Auto Pan&Scan, Auto Letterboxed
Language Unit :
Chapter (PTT) Menu

VTS_04 Menu
Video:
NTSC 4:3 (720x480) VBR
Auto Pan&Scan, Auto Letterboxed
Language Unit :
Angle menu
Language Unit :
Свернуть

"MediaInfo"
Общее
Полное имя : J:\Новинки 2012\Kosmopolis.2012.DVD5\VIDEO_TS\VTS_01_2.VOB
Формат : MPEG-PS
Размер файла : 1024 Мбайт
Продолжительность : 25 м.
Режим общего битрейта : Переменный
Общий поток : 5652 Кбит/сек

Видео
Идентификатор : 224 (0xE0)
Формат : MPEG Video
Версия формата : Version 2
Профиль формата : Main@Main
Параметр BVOP формата : Да
Параметр матрицы формата : Выборочная
Параметр GOP формата : M=3, N=15
Продолжительность : 25 м.
Вид битрейта : Переменный
Битрейт : 5155 Кбит/сек
Максимальный битрейт : 8000 Кбит/сек
Ширина : 720 пикселей
Высота : 576 пикселей
Соотношение сторон : 16:9
Частота кадров : 25,000 кадров/сек
Стандарт вещания : PAL
Цветовое пространство : YUV
Субдискретизация насыщенности : 4:2:0
Битовая глубина : 8 бит
Тип развёртки : Чересстрочная
Порядок развёртки : Верхнее поле первое
Метод сжатия : С потерями
Бит/(Пиксели*Кадры) : 0.497
Размер потока : 934 Мбайт (91%)

Аудио
Идентификатор : 189 (0xBD)-128 (0x80)
Формат : AC-3
Формат/Информация : Audio Coding 3
Расширение режима : CM (complete main)
Параметр Endianness формата : Big
Режим смешивания : DVD-Video
Продолжительность : 25 м.
Вид битрейта : Постоянный
Битрейт : 384 Кбит/сек
Каналы : 6 каналов
Расположение каналов : Front: L C R, Side: L R, LFE
Частота : 48,0 КГц
Битовая глубина : 16 бит
Метод сжатия : С потерями
Задержка видео : -472 мс.
Размер потока : 69,6 Мбайт (7%)

Свернуть

Скриншоты
Скриншоты меню
Изображение
Изображение
Свернуть
Изображение
Изображение
Изображение
Изображение
Изображение
Изображение
Изображение
Изображение
Изображение
Изображение
Свернуть

Знаете ли Вы, что...
Колин Фаррел изначально должен был сниматься в фильме, но покинул проект из-за несогласованности расписаний съемок с фильмом «Вспомнить всё» (2012). В итоге его место занял Роберт Паттинсон.
Марион Котийяр должна была сниматься в фильме, но отказалась в связи с беременностью.
После того как проект покинула Марион Котийяр, на ее место рассматривались кандидатуры Нуми Рапас и Киры Найтли.
Дэвид Кроненберг написал сценарий за шесть дней.
Свернуть

Изображение
Не в сети
Профиль  
 Добавлено: 2012-09-04 20:35 (спустя 22 часа)
Аватара пользователя
Стаж: 7 лет
Сообщений: 19
Фильм не для нашего мира!!!!!!!!!!!!!!!!!!!!
Не в сети
Профиль  
 Добавлено: 2012-09-05 20:42 (спустя 1 день)
Стаж: 7 лет
Сообщений: 37
Нахер. Не стал даже досматривать. Лажа. Я понимаю, конечно, чего они хотели добиться таким фильмом, таким стилем, но нахер оно надо кому
Не в сети
Профиль  
 Добавлено: 2012-09-11 06:56 (спустя 5 дней)
Пользователь забанен
Аватара пользователя
Стаж: 6 лет 10 месяцев
Возраст: 35
Сообщений: 161
Спасибок: 67
Лайков: 15
Минут 30 осилил :-D потом почувствовал что мои глаза закрываются и я засыпаю ;;-))) потом терпения не хватило слышать это. я канеш смотрел такие фильмы такого направления. и если он интересен он будет захватывать от начала и до конца. А тут пипец базар какойто неочемный. остальное проматал минут за 10 и забыл.
_________________
Only Psyhedelic
Не в сети
Профиль  
 Добавлено: 2012-09-12 19:36 (спустя 1 день 12 часов)
Аватара пользователя
Стаж: 7 лет 11 месяцев
Возраст: 29
Сообщений: 11
Зря время потратил.
Не в сети
Профиль  
 Добавлено: 2012-09-24 21:41 (спустя 12 дней)
Стаж: 7 лет 8 месяцев
Сообщений: 15
иНТЕРЕСНО
Не в сети
Профиль  
 Добавлено: 2012-09-29 12:49 (спустя 4 дня)
Аватара пользователя
Стаж: 7 лет 1 месяц
Сообщений: 17
Осилил 3 минуты , потом нажал DELETE на клаве и снес к чертям собачим ) интересно , те кто в кино смотрели просто вставали и уходили??? :men:
Не в сети
Профиль  
 Добавлено: 2012-09-30 09:45 (спустя 20 часов)
Стаж: 9 лет
Сообщений: 7

Muskirl:

Осилил 3 минуты , потом нажал DELETE на клаве и снес к чертям собачим ) интересно , те кто в кино смотрели просто вставали и уходили??? :men:
Именно. Додумался на ЭТО сходить с женой. В течение всего фильма выходили то по одному, то группами. Мы принципиально решили досмотреть. Первую половину фильма я всерьез пытался "осилить" происходящее, потом стал потихоньку накатывать истерических смех от комичности ситуации (сидит куча взрослых людей и смотрит ТАКУЮ АХИНЕЮ!). Вспомнил давно забытое ощущение, когда в академии на паре кто-то втихаря рассказывал смешной анекдот, тебя просто изнутри раздирало от смеха, а смеяться нельзя - вдруг препод услышит. Поначалу таким образом давились от смеха все, сидевшие рядом. Под конец фильма серьезно поредевший зал ржал в голос. Стесняться было уже некого. Не понимаю как такое Г**** вообще пропустили в прокат.
Не в сети
Профиль  
Начать новую темуОтветить на тему  [ Сообщений: 8 ] 
Вы не можете начинать темы
Вы не можете отвечать на сообщения
Вы не можете редактировать свои сообщения
Вы не можете удалять свои сообщения