Правила форума

  • В этом разделе создание новых тем Запрещено.
  • Для создания новых тем пользуйтесь Корневым разделом DVD и HD фильмы.
Начать новую темуОтветить на тему  [ Сообщений: 2 ] 
Торрент файл
Размер: 7.44 GB • Зарегистрирован: 4 года 2 месяца • Статус: Проверено
Скачан: 72 раза • Желающих скачать: 0 • Поблагодарили: 18 раз
 Раздают: 0  |  0 KB/s  ]   Качают: 0  |  0 KB/s  ] 
 Полного источника не было 8 месяцев 
Сообщения
 Добавлено: 2012-09-20 22:44
Аватара пользователя
Стаж: 5 лет 5 месяцев
Возраст: 30
Сообщений: 353
Спасибок: 7455
Красные огни / Red Lights

Изображение


Год выпуска: 2012
Страна: Испания, США (Antena 3 Films, Cindy Cowan Entertainment, Nostromo Pictures)
Слоган: «Готов ли ты поверить в это?»
Жанр: ужасы, триллер, драма
Продолжительность: 01:49:29
Перевод: Профессиональный (дубляж)
Дублеры: Александр Гаврилин, Владимир Еремин, Прохор Чеховской, Василий Дахненко, Кирилл Туранский + Профессиональный (дубляж)
Дублеры: Александр Гаврилин, Владимир Еремин, Прохор Чеховской, Василий Дахненко, Кирилл Туранский + Оригинальная звуковая дорожка
Субтитры: Нет

Режиссёр: Родриго Кортес / Rodrigo Cortes
Сценарист: Родриго Кортес / Rodrigo Cortes
Продюсер: Родриго Кортес, Адриан Герра, Синди Кауэн
Оператор: Ксави Хименес
Композитор: Виктор Рейес
В ролях: Роберт Де Ниро, Сигурни Уивер, Киллиан Мёрфи, Элизабет Олсен, Тоби Джонс, Джоэли Ричардсон, Крэйг Робертс, Берн Горман, Карен Шенас-Дэвид, Жан Корнет

Описание: Ученые-скептики Маргарет Мэтисон и ее ассистент, Том Бакли, занимаются разоблачением шарлатанов. Изучение паранормального приводит их к столкновению с давним противником доктора Мэтисон — человеком по имени Сильвер.
Объявив о своем возвращении, Сильвер впервые за многие годы выступает перед широкой публикой. Знавшие экстрасенса люди не забыли, что незадолго до добровольного ухода Сильвера со сцены таинственной смертью погиб основной критик его деятельности.

Доп.информация: Анонсы
Рейтинг MPAA: Рейтинг R (Подростки до 17 лет допускаются на фильм только в сопровождении одного из родителей)
Мировая премьера: 20 января 2012
Премьера в России: 19 июля 2012, «Парадиз»
Кассовые сборы: $4 778 846

Изображение Изображение Изображение

Качество: DVD9 R5
Формат: DVD Video
Видео кодек: MPEG2
Аудио кодек: DTS
Видео: PAL 16:9 (720x576(0.562)) MPEG Video, 25,000 кадр/сек, 5825 Кбит/сек
Аудио #1: Russian (Dolby AC3, 6 ch) 448 Кбит/сек, 48,0 КГц [Профессиональный (дубляж)]
Аудио #2: Russian (DTS, 5 ch) 1510 Кбит/сек, 48,0 КГц [Профессиональный (дубляж)]
Аудио #3: English (Dolby AC3, 2 ch) 192 Кбит/сек, 48,0 КГц [Оригинальная звуковая дорожка]
Субтитры: Нет

"DVDInfo"
Title: Krasnye.ogni.2012.DVD9
Size: 7.44 Gb ( 7 802 889,00 KBytes ) - DVD-9
Enabled regions: 1, 2, 3, 4, 5, 6, 7, 8

VTS_01 :
Play Length: 01:49:29
Video: PAL 16:9 (720x576) VBR, Auto Letterboxed
Audio:
Russian (Dolby AC3, 6 ch)
Not specified (DTS, 5 ch)
Not specified (Dolby AC3, 2 ch)
Subtitles:
Russian

VTS_02 :
Play Length: 00:02:19
Video: PAL 16:9 (720x576) VBR, Auto Letterboxed
Audio:
English (LinearPCM, 2 ch)

VTS_03 :
Play Length: 00:01:50
Video: PAL 16:9 (720x576) VBR, Auto Letterboxed
Audio:
English (LinearPCM, 2 ch)

VTS_04 :
Play Length: 00:02:25
Video: PAL 16:9 (720x576) VBR, Auto Letterboxed
Audio:
English (LinearPCM, 2 ch)

VTS_05 :
Play Length: 00:00:01
Video: PAL 16:9 (720x576) VBR, Auto Letterboxed
Audio:
Russian (MPEG1, 2 ch)
Russian (Dolby AC3, 2 ch)
English (Dolby AC3, 2 ch)
Subtitles:
Russian

VTS_06 :
Play Length: 00:00:00
Video: PAL 16:9 (720x576) VBR, Auto Letterboxed
Audio:
Russian (MPEG1, 2 ch)
Russian (MPEG1, 2 ch)
English (MPEG1, 2 ch)
Subtitles:
Russian

VTS_07 :
Play Length: 00:00:07
Video: PAL 16:9 (720x576) VBR, Auto Letterboxed
Audio:
English (LinearPCM, 2 ch)

VTS_08 :
Play Length: 00:00:15
Video: PAL 4:3 (720x576) VBR
Audio:
English (LinearPCM, 2 ch)

VTS_09 :
Play Length: 00:00:17
Video: PAL 16:9 (720x576) VBR, Auto Letterboxed
Audio:
Russian (LinearPCM, 2 ch)
Russian (LinearPCM, 2 ch)
English (LinearPCM, 2 ch)
Subtitles:
Russian

VTS_10 :
Play Length: 00:01:26
Video: PAL 16:9 (720x576) VBR, Auto Letterboxed
Audio:
English (LinearPCM, 2 ch)

VTS_11 :
Play Length: 00:01:57
Video: PAL 16:9 (720x576) VBR, Auto Letterboxed
Audio:
English (LinearPCM, 2 ch)

VTS_12 :
Play Length: 00:02:00
Video: PAL 16:9 (720x576) VBR, Auto Letterboxed
Audio:
English (LinearPCM, 2 ch)

VTS_13 :
Play Length: 00:02:01
Video: PAL 16:9 (720x576) VBR, Auto Letterboxed
Audio:
English (LinearPCM, 2 ch)

VTS_14 :
Play Length: 00:02:03
Video: PAL 16:9 (720x576) VBR, Auto Letterboxed
Audio:
English (LinearPCM, 2 ch)

VTS_15 :
Play Length: 00:02:07
Video: PAL 16:9 (720x576) VBR, Auto Letterboxed
Audio:
English (LinearPCM, 2 ch)

VTS_16 :
Play Length: 00:02:33
Video: PAL 16:9 (720x576) VBR, Auto Letterboxed
Audio:
English (LinearPCM, 2 ch)

* Menus Information *

VIDEO_TS Menu
Video:
PAL 4:3 (720x576) VBR
English Language Unit :
Title Menu

VTS_01 Menu
Video:
PAL 16:9 (720x576) VBR
Auto Letterboxed
Audio:
Not specified (LinearPCM, 2 ch)
English Language Unit :
Root Menu

VTS_02 Menu
Video:
PAL 4:3 (720x576) VBR
English Language Unit :
Root Menu

VTS_03 Menu
Video:
PAL 4:3 (720x576) VBR
English Language Unit :
Root Menu

VTS_04 Menu
Video:
PAL 4:3 (720x576) VBR
English Language Unit :
Root Menu

VTS_05 Menu
Video:
PAL 4:3 (720x576) VBR
English Language Unit :
Root Menu

VTS_06 Menu
Video:
PAL 4:3 (720x576) VBR
English Language Unit :
Root Menu

VTS_07 Menu
Video:
PAL 4:3 (720x576) VBR
English Language Unit :
Root Menu

VTS_08 Menu
Video:
PAL 4:3 (720x576) VBR
English Language Unit :
Root Menu

VTS_09 Menu
Video:
PAL 4:3 (720x576) VBR
English Language Unit :
Root Menu

VTS_10 Menu
Video:
PAL 4:3 (720x576) VBR
English Language Unit :
Root Menu

VTS_11 Menu
Video:
PAL 4:3 (720x576) VBR
English Language Unit :
Root Menu

VTS_12 Menu
Video:
PAL 4:3 (720x576) VBR
English Language Unit :
Root Menu

VTS_13 Menu
Video:
PAL 4:3 (720x576) VBR
English Language Unit :
Root Menu

VTS_14 Menu
Video:
PAL 4:3 (720x576) VBR
English Language Unit :
Root Menu

VTS_15 Menu
Video:
PAL 4:3 (720x576) VBR
English Language Unit :
Root Menu

VTS_16 Menu
Video:
PAL 4:3 (720x576) VBR
English Language Unit :
Root Menu
Свернуть

"MediaInfo"
Общее
Полное имя : J:\Новинки 2012\Krasnye.ogni.2012.DVD9\VIDEO_TS\VTS_01_1.VOB
Формат : MPEG-PS
Размер файла : 1024 Мбайт
Продолжительность : 17 м.
Режим общего битрейта : Переменный
Общий поток : 8137 Кбит/сек

Видео
Идентификатор : 224 (0xE0)
Формат : MPEG Video
Версия формата : Version 2
Профиль формата : Main@Main
Параметр BVOP формата : Да
Параметр матрицы формата : По умолчанию
Параметр GOP формата : M=3, N=12
Продолжительность : 17 м.
Вид битрейта : Переменный
Битрейт : 5825 Кбит/сек
Максимальный битрейт : 7000 Кбит/сек
Ширина : 720 пикселей
Высота : 576 пикселей
Соотношение сторон : 16:9
Частота кадров : 25,000 кадров/сек
Стандарт вещания : PAL
Цветовое пространство : YUV
Субдискретизация насыщенности : 4:2:0
Битовая глубина : 8 бит
Тип развёртки : Прогрессивная
Метод сжатия : С потерями
Бит/(Пиксели*Кадры) : 0.562
Размер потока : 733 Мбайт (72%)

Аудио #1
Идентификатор : 189 (0xBD)-128 (0x80)
Формат : AC-3
Формат/Информация : Audio Coding 3
Расширение режима : CM (complete main)
Параметр Endianness формата : Big
Режим смешивания : DVD-Video
Продолжительность : 17 м.
Вид битрейта : Постоянный
Битрейт : 448 Кбит/сек
Каналы : 6 каналов
Расположение каналов : Front: L C R, Side: L R, LFE
Частота : 48,0 КГц
Битовая глубина : 16 бит
Метод сжатия : С потерями
Размер потока : 56,4 Мбайт (6%)

Аудио #2
Идентификатор : 189 (0xBD)-130 (0x82)
Формат : AC-3
Формат/Информация : Audio Coding 3
Расширение режима : CM (complete main)
Параметр Endianness формата : Big
Режим смешивания : DVD-Video
Продолжительность : 17 м.
Вид битрейта : Постоянный
Битрейт : 192 Кбит/сек
Каналы : 2 канала
Расположение каналов : Front: L R
Частота : 48,0 КГц
Битовая глубина : 16 бит
Метод сжатия : С потерями
Размер потока : 24,2 Мбайт (2%)

Аудио #3
Идентификатор : 189 (0xBD)-137 (0x89)
Формат : DTS
Формат/Информация : Digital Theater Systems
Режим смешивания : DVD-Video
Продолжительность : 17 м.
Вид битрейта : Постоянный
Битрейт : 1510 Кбит/сек
Каналы : 6 каналов
Расположение каналов : Front: L C R, Side: L R, LFE
Частота : 48,0 КГц
Битовая глубина : 16 бит
Метод сжатия : С потерями
Размер потока : 190 Мбайт (19%)

Текст #1
Идентификатор : 189 (0xBD)-33 (0x21)
Формат : RLE
Формат/Информация : Run-length encoding
Режим смешивания : DVD-Video

Текст #2
Идентификатор : 189 (0xBD)-34 (0x22)
Формат : RLE
Формат/Информация : Run-length encoding
Режим смешивания : DVD-Video

Свернуть

Скриншоты
Скриншоты меню
Изображение
Изображение
Изображение
Изображение
Свернуть
Изображение
Изображение
Изображение
Изображение
Изображение
Изображение
Изображение
Изображение
Изображение
Изображение
Свернуть

Знаете ли Вы, что...
В видео-лаборатории, где работает Бакли, висит копия плаката «I Want To Believe» (Я хочу верить) известного по сериалу «Секретные материалы» (1993—2002), но цитата изменена на «I Want To Understand» (Я хочу понять).
Испанский режиссер Эудженио Мира играет роль молодого Роберта Де Ниро.
Свернуть

Изображение
Не в сети
Профиль  
 Добавлено: 2012-12-19 21:49 (спустя 2 месяца 28 дней)
Стаж: 7 лет 4 месяца
Сообщений: 25
классный фильм! но надо включить мозг :-ok-:
Не в сети
Профиль  
Начать новую темуОтветить на тему  [ Сообщений: 2 ] 
Вы не можете начинать темы
Вы не можете отвечать на сообщения
Вы не можете редактировать свои сообщения
Вы не можете удалять свои сообщения