Правила форума

  • В этом разделе создание новых тем Запрещено.
  • Для создания новых тем пользуйтесь Корневым разделом DVD и HD фильмы.
Начать новую темуОтветить на тему  [ Сообщений: 5 ] 
Торрент файл
Размер: 6.46 GB • Зарегистрирован: 5 лет 6 месяцев • Статус: Проверено
Скачан: 274 раза • Желающих скачать: 0 • Поблагодарили: 44 раза
 Раздают: 0  |  0 KB/s  ]   Качают: 0  |  0 KB/s  ] 
 Полного источника не было 3 года 2 месяца 
Сообщения
 Добавлено: 2011-06-10 21:54
Модератор
Аватара пользователя
Стаж: 8 лет 1 месяц
Возраст: 20
Сообщений: 32130
Спасибок: 98573
Лайков: 80
Изображение

Криминальная фишка от Генри / Henry's Crime


Год выпуска: 2011
Страна: США
Слоган: «Ну как не совершить преступление, за которое уже отсидел?»

Жанр: мелодрама, комедия, криминал
Продолжительность: 01:43:20
Перевод: Дублированное [лицензия]

Режиссер: Малькольм Венвилль
В ролях: Вера Фармига, Киану Ривз, Джуди Грир, Джеймс Каан, Петер Стормаре, Фишер Стивенс, Билл Дьюк, Карри Грэм, Дэнни Хоч, Дэвид Костабайл

Бюджет: $12 000 000
Сборы в США: $101 882
Сборы в России: $1 587 260
Сборы в мире: $204 281

Мировая премьера: 7 апреля 2011
Релиз на DVD: 16 июня 2011, «Парадиз Видео»
Релиз на Blu-ray: 30 июня 2011, «Парадиз Видео»
Описание: Встречайте Генри - самого унылого парня в Америке. Он сидит в своей будке у дороги, взимая пошлину с проезжающих. Казалось, в его жизни ничто не может измениться. Но однажды сомнительный приятель попросил Генри подождать его у крыльца главного банка в Буффало... В результате - четыре года тюрьмы по ложному обвинению в ограблении. Но пройдет время, и Генри вернется к тому самому банку, чтобы взять свое...
Изображение
MPAA: Изображение - Лицам до 17 лет обязательно присутствие взрослого
Качество: DVD9
Формат: DVD Video

Видео: PAL 16:9 (720x576)
Аудио: Russian / English (Dolby AC3, 6 ch), Russian (Dolby AC3, 2 ch)
Субтитры: Russian
DVDInfo
Title:
Size: 6.46 Gb ( 6 772 798 KBytes ) - DVD-9
Enabled regions: 1, 2, 3, 4, 5, 6, 7, 8

VTS_01 :
  Play Length: 00:00:01+01:43:19
  Video: PAL 16:9 (720x576) VBR, Auto Pan&Scan
  Audio:
      Russian (Dolby AC3, 6 ch)
      Russian (Dolby AC3, 2 ch)
      English (Dolby AC3, 6 ch)
  Subtitles:
      Russian

VTS_02 :
  Play Length: 00:00:01+00:00:11
  Video: PAL 16:9 (720x576) VBR, Auto Pan&Scan
  Audio:
      Russian (Dolby AC3, 2 ch)

VTS_03 :
  Play Length: 00:00:01+00:00:17
  Video: PAL 4:3 (720x576) VBR
  Audio:
      Russian (Dolby AC3, 2 ch)

VTS_04 :
  Play Length: 00:00:01+00:07:24
  Video: PAL 4:3 (720x576) VBR
  Audio:
      Russian (Dolby AC3, 2 ch)

VTS_05 :
  Play Length: 00:00:01+00:08:11
  Video: PAL 16:9 (720x576) VBR, Auto Pan&Scan
  Audio:
      Russian (Dolby AC3, 2 ch)
Свернуть
MediaInfo
Общее
Полное имя : F:\Новинки 2011\Kriminalnaya.fishka.Genri.2011.DVD9\VIDEO_TS\VTS_01_1.VOB
Формат : MPEG-PS
Размер файла : 1024 Мбайт
Продолжительность : 18 м.
Общий поток : 7632 Кбит/сек
Видео
Идентификатор : 224 (0xE0)
Формат : MPEG Video
Версия формата : Version 2
Профиль формата : Main@Main
Параметр BVOP формата : Да
Параметр матрицы формата : По умолчанию
Продолжительность : 18 м.
Вид битрейта : Постоянный
Битрейт : 6520 Кбит/сек
Номинальный битрейт : 6000 Кбит/сек
Ширина : 720 пикс.
Высота : 576 пикс.
Соотношение сторон : 16:9
Частота кадров : 25,000 кадр/сек
Стандарт вещания : PAL
Цветовое пространство : YUV
Подвыборка цветности : 4:2:0
Битовая глубина : 8 бит
Тип развёртки : Чересстрочная
Порядок развёртки : Нижнее поле первое
Метод сжатия : С потерями
Бит/(Пиксели*Кадры) : 0.629
Размер потока : 875 Мбайт (85%)
Аудио #1
Идентификатор : 189 (0xBD)-128 (0x80)
Формат : AC-3
Формат/Информация : Audio Coding 3
Расширение режима : CM (complete main)
Режим смешивания : DVD-Video
Продолжительность : 18 м.
Вид битрейта : Постоянный
Битрейт : 384 Кбит/сек
Канал(ы) : 6 канала(ов)
Расположение каналов : Front: L C R, Side: L R, LFE
Частота : 48,0 КГц
Битовая глубина : 16 бит
Метод сжатия : С потерями
Размер потока : 51,5 Мбайт (5%)
Аудио #2
Идентификатор : 189 (0xBD)-129 (0x81)
Формат : AC-3
Формат/Информация : Audio Coding 3
Расширение режима : CM (complete main)
Режим смешивания : DVD-Video
Продолжительность : 18 м.
Вид битрейта : Постоянный
Битрейт : 192 Кбит/сек
Канал(ы) : 2 канала(ов)
Расположение каналов : Front: L R
Частота : 48,0 КГц
Битовая глубина : 16 бит
Метод сжатия : С потерями
Размер потока : 25,8 Мбайт (3%)
Аудио #3
Идентификатор : 189 (0xBD)-130 (0x82)
Формат : AC-3
Формат/Информация : Audio Coding 3
Расширение режима : CM (complete main)
Режим смешивания : DVD-Video
Продолжительность : 18 м.
Вид битрейта : Постоянный
Битрейт : 384 Кбит/сек
Канал(ы) : 6 канала(ов)
Расположение каналов : Front: L C R, Side: L R, LFE
Частота : 48,0 КГц
Битовая глубина : 16 бит
Метод сжатия : С потерями
Размер потока : 51,5 Мбайт (5%)
Текст
Идентификатор : 189 (0xBD)-32 (0x20)
Формат : RLE
Формат/Информация : Run-length encoding
Режим смешивания : DVD-Video
Свернуть
Скриншоты
Изображение

Изображение

Изображение

Изображение

Изображение
Свернуть


Последний раз редактировалось Костян236 2011-06-10 23:09, всего редактировалось 1 раз.
Не в сети
Профиль  
 Добавлено: 2011-06-10 22:21 (спустя 26 минут)
Аватара пользователя
Стаж: 8 лет 1 месяц
Сообщений: 270
Костян236 раздай :ti_pa:
Не в сети
Профиль  
 Добавлено: 2011-06-11 07:08 (спустя 8 часов)
Модератор
Аватара пользователя
Стаж: 8 лет 10 месяцев
Возраст: 27
Сообщений: 1478
Спасибок: 1768
Лайков: 1
хороший кстати фильм. жаль не окупился((
Не в сети
Профиль  
 Добавлено: 2011-06-11 22:01 (спустя 14 часов)
Стаж: 6 лет 9 месяцев
Сообщений: 36
Лайков: 1
В целом да, фильм интригует, но концовка фильма настолько неоднозначна и не ясна, что портит все впечатление о фильме. Но идея очень даже хороша. Как то так
Не в сети
Профиль  
 Добавлено: 2011-06-16 20:17 (спустя 4 дня)
Стаж: 8 лет 7 месяцев
Сообщений: 28
раздайте
Не в сети
Профиль  
Начать новую темуОтветить на тему  [ Сообщений: 5 ] 
Вы не можете начинать темы
Вы не можете отвечать на сообщения
Вы не можете редактировать свои сообщения
Вы не можете удалять свои сообщения