Правила форума

  • В этом разделе создание новых тем Запрещено.
  • Для создания новых тем пользуйтесь Корневым разделом DVD и HD фильмы.
Начать новую темуОтветить на тему  [ Сообщений: 3 ] 
Торрент файл
Размер: 4.37 GB • Зарегистрирован: 3 года 2 месяца • Статус: Проверено
Скачан: 174 раза • Желающих скачать: 0 • Поблагодарили: 44 раза
 Раздают: 0  |  0 KB/s  ]   Качают: 0  |  0 KB/s  ] 
 Полного источника не было 19 часов 
Сообщения
 Добавлено: 2013-09-08 08:24
DVD Release Group
Аватара пользователя
Стаж: 7 лет 1 месяц
Сообщений: 3549
Спасибок: 247086
Лайков: 1018
Кровью и потом: Анаболики

Pain & Gain


Изображение


Год выпуска: 2013
Страна: США
Жанр: Боевик, триллер, комедия
Продолжительность: 02:04:17
Перевод: Профессиональный (полное дублирование)
Cубтитры: Нет
Режиссер: Майкл Бэй
В ролях: Марк Уолберг, Дуэйн Джонсон, Энтони Маки, Тони Шэлуб, Эд Харрис, Кен Жонг, Иоланта Кабау ван Касберген, Виорика Пинеда, Роб Кордри, Ребел Уилсон
Описание: Однажды тренеру по фитнесу надоело ходить в трениках. Он решил круто изменить свою судьбу и разбогатеть. Нашел двух других незадачливых качков и предложил им план похищения своего клиента-миллионера. Но если в организме мышц больше, чем мозгов, то даже самый лучший план, подсмотренный в экшен-боевике, может не сработать…
Изображение
Дополнительно:
Исходник: DVD9 (6.75Гб) [лицензия, PAL 16:9].
Убрано: Реклама, заставки и предупреждение.
Сжатие фильма 32,4% сжатия (без учета ручного перераспределения битрейта, за счет большего сжатия конечных титров).
Работоспособность проверена на софтовом плеере Windows Media и бытовом LG.
Качество: DVD5 (сжатый)
Формат: DVD Video
Видео кодек: MPEG2
Аудио кодек: AC3
Видео: 720х576 25fps 4593Kbps
Аудио: 48kHz 6ch 384Kbps
"MediaInfo"
Формат : MPEG-PS
Размер файла : 1024 Мбайт
Продолжительность : 31 м.
Режим общего битрейта : Переменный
Общий поток : 4562 Кбит/сек

Видео
Идентификатор : 224 (0xE0)
Формат : MPEG Video
Версия формата : Version 2
Профиль формата : Main@Main
Параметр BVOP формата : Да
Параметр матрицы формата : Выборочная
Продолжительность : 31 м.
Вид битрейта : Переменный
Битрейт : 4087 Кбит/сек
Максимальный битрейт : 9000 Кбит/сек
Ширина : 720 пикселей
Высота : 576 пикселей
Соотношение сторон : 16:9
Частота кадров : 25,000 кадров/сек
Стандарт вещания : PAL
Цветовое пространство : YUV
Субдискретизация насыщенности : 4:2:0
Битовая глубина : 8 бит
Тип развёртки : Прогрессивная
Порядок развёртки : Верхнее поле первое
Метод сжатия : С потерями
Бит/(Пиксели*Кадры) : 0.394
Размер потока : 917 Мбайт (90%)

Аудио
Идентификатор : 189 (0xBD)-128 (0x80)
Формат : AC-3
Формат/Информация : Audio Coding 3
Расширение режима : CM (complete main)
Режим смешивания : DVD-Video
Продолжительность : 31 м.
Вид битрейта : Постоянный
Битрейт : 384 Кбит/сек
Каналы : 6 каналов
Расположение каналов : Front: L C R, Side: L R, LFE
Частота : 48,0 КГц
Битовая глубина : 16 бит
Метод сжатия : С потерями
Размер потока : 86,2 Мбайт (8%)

Меню
Свернуть

"Скриншоты"
Изображение
Изображение
Изображение
Изображение
Изображение
Изображение
Свернуть

Раздача группы:
Изображение
Не в сети
Профиль  
 Добавлено: 2013-09-08 16:32 (спустя 8 часов)
Стаж: 6 лет 10 месяцев
Сообщений: 7
:)-(: :ps_ih: :ya_hoo_oo: :ny_tik: :-D :-P :ny_tik: :-* :( :) :par_don:
Не в сети
Профиль  
 Добавлено: 2013-09-22 05:08 (спустя 13 дней)
Аватара пользователя
Стаж: 3 года 4 месяца
Сообщений: 24
как фильм то?
Не в сети
Профиль  
Начать новую темуОтветить на тему  [ Сообщений: 3 ] 
Вы не можете начинать темы
Вы не можете отвечать на сообщения
Вы не можете редактировать свои сообщения
Вы не можете удалять свои сообщения