Правила форума

  • В этом разделе создание новых тем Запрещено.
  • Для создания новых тем пользуйтесь Корневым разделом DVD и HD фильмы.
Начать новую темуОтветить на тему  [ 1 сообщение ] 
Торрент файл
Размер: 4.18 GB • Зарегистрирован: 4 года 5 месяцев • Статус: Проверено
Скачан: 82 раза • Желающих скачать: 0 • Поблагодарили: 18 раз
 Раздают: 0  |  0 KB/s  ]   Качают: 0  |  0 KB/s  ] 
 Полного источника не было 3 года 2 месяца 
Сообщения
 Добавлено: 2012-06-24 07:20
Руководитель релиз-группы
Аватара пользователя
Стаж: 7 лет 5 месяцев
Возраст: 31
Сообщений: 3406
Спасибок: 46729
Лайков: 5
Изображение

Крутой чувак
Bad Ass


Год выпуска: 2011
Страна: США
Слоган: «They messed with the wrong senior citizen.»
Жанр: боевик, драма
Продолжительность: 01:26:27
Перевод: Профессиональный (многоголосый, закадровый)
Режиссер: Крэйг Мосс
Сценарий: Крэйг Мосс, Эллиот Тишман
Продюсер: Эш Р. Шах, Джим Басфилд, Бен Фейнголд
Оператор: Джон Барр
Композитор: Тодд Хаберман
В ролях: Дэнни Трехо, Рон Перлман, Чарльз С. Даттон, Джойфул Дрэйк, Патрик Фабиан, Джон Даффи, Винтер Эйв Золи, Дэнни Вудберн, Дэвид Арнольд
Описание: Фрэнк Вега становится звездой местного масштаба после интернет-ролика, где он разбирается со шпаной в автобусе. Вскоре убивают лучшего друга Фрэнка. «Крутой Чувак» решает разобраться с этим как умеет.
Изображение
MPAA: Изображение
Релиз: Изображение Раздача группы: Изображение
Качество: DVD5
Формат: DVD Video
Видео: MPEG2; PAL 16:9 (720x576)
Аудио #1: Dolby AC3, 6 ch, 384 Kbps Russian
Аудио #2: Dolby AC3, 6 ch, 448 Kbps English
Аудио #3: Dolby AC3, 6 ch, 384 Kbps Polish
Субтитры: English, Russian, Arabic, Estonian, Greek, Islenska, Latvian, Lithuanian, Polish, Portugues, Romanian, Turkish
Дополнительно: нет
Изображение
DVDInfo
    Title: Krutoy.chuvak_2012_DVD5.[R.G.Daredevil]
    Size: 4.18 Gb ( 4 381 840,00 KBytes ) - DVD-5
    Enabled regions: 1, 2, 3, 4, 5, 6, 7, 8

    VTS_01 :
    Play Length: 00:00:00
    Video: PAL 16:9 (720x576) VBR, Auto Letterboxed

    VTS_02 :
    Play Length: 01:26:27+00:00:00
    Video: PAL 16:9 (720x576) VBR, Auto Letterboxed
    Audio:
    English (Dolby AC3, 6 ch)
    Russian (Dolby AC3, 6 ch)
    Polish (Dolby AC3, 6 ch)
    Subtitles:
    English
    Russian
    Russian
    Arabic
    Estonian
    Greek
    Islenska
    Latvian
    Lithuanian
    Polish
    Portugues
    Romanian
    Turkish

    VTS_03 :
    Play Length: 00:00:00+00:01:01+{00:00:00}+00:00:00+00:00:00+00:00:00
    Video: PAL 16:9 (720x576) VBR, Auto Letterboxed
    Audio:
    English (Dolby AC3, 2 ch)
    Subtitles:
    Arabic
    Estonian
    Greek
    Islenska
    Latvian
    Lithuanian
    Portugues
    Romanian

    VTS_04 :
    Play Length: 00:00:01
    Video: PAL 16:9 (720x576) VBR, Auto Pan&Scan
    Audio:
    Not specified (Dolby AC3, 2 ch)

    VTS_05 :
    Play Length: 00:00:00+00:00:07
    Video: PAL 16:9 (720x576) VBR, Auto Letterboxed
    Audio:
    Not specified (Dolby AC3, 2 ch)

    VTS_06 :
    Play Length: 00:00:24
    Video: PAL 16:9 (720x576) VBR, Auto Letterboxed
    Audio:
    Not specified (Dolby AC3, 6 ch)

    VTS_07 :
    Play Length: 00:00:00
    Video: PAL 16:9 (720x576) VBR, Auto Pan&Scan

    VTS_08 :
    Play Length: 00:00:00+00:00:05+00:00:05+00:00:00
    Video: PAL 16:9 (720x576) VBR, Auto Pan&Scan
    Audio:
    Not specified (Dolby AC3, 2 ch)

    VTS_09 :
    Play Length: 00:00:00+00:01:24+{00:00:00}+00:00:00+{00:00:00}
    Video: PAL 16:9 (720x576) VBR, Auto Pan&Scan
    Audio:
    Not specified (Dolby AC3, 2 ch)

    VTS_10 :
    Play Length: 00:00:00
    Video: PAL 16:9 (720x576) VBR, Auto Letterboxed

    VTS_11 :
    Play Length: 00:00:00+00:00:00
    Video: PAL 16:9 (720x576) VBR, Auto Letterboxed

    VTS_12 :
    Play Length: 00:00:00+00:00:00+00:00:00+00:00:00+00:00:00+00:00:00+00:00:00+00:00:00+{00:00:00}
    Video: PAL 16:9 (720x576) VBR, Auto Letterboxed

    VTS_13 :
    Play Length: 00:00:38
    Video: PAL 16:9 (720x576) VBR, Auto Letterboxed
    Audio:
    English (Dolby AC3, 2 ch)

    VTS_14 :
    Play Length: 00:01:01+00:01:01+00:01:01+{00:00:00}+{00:00:00}
    Video: PAL 16:9 (720x576) VBR, Auto Letterboxed
    Audio:
    English (Dolby AC3, 2 ch)
    Subtitles:
    Russian
    Polish
    Turkish
Свернуть
mediainfo
    Формат : MPEG-PS
    Размер файла : 1024 Мбайт
    Продолжительность : 20 м.
    Режим общего битрейта : Переменный
    Общий поток : 6945 Кбит/сек

    Видео
    Идентификатор : 224 (0xE0)
    Формат : MPEG Video
    Версия формата : Version 2
    Профиль формата : Main@Main
    Параметр BVOP формата : Да
    Параметр матрицы формата : Выборочная
    Продолжительность : 20 м.
    Вид битрейта : Переменный
    Битрейт : 5591 Кбит/сек
    Ширина : 720 пикселей
    Высота : 576 пикселей
    Соотношение сторон : 16:9
    Частота кадров : 25,000 кадров/сек
    Стандарт вещания : PAL
    Цветовое пространство : YUV
    Субдискретизация насыщенности : 4:2:0
    Битовая глубина : 8 бит
    Тип развёртки : Прогрессивная
    Порядок развёртки : Верхнее поле первое
    Метод сжатия : С потерями
    Бит/(Пиксели*Кадры) : 0.539
    Размер потока : 824 Мбайт (81%)

    Аудио #1
    Идентификатор : 189 (0xBD)-128 (0x80)
    Формат : AC-3
    Формат/Информация : Audio Coding 3
    Расширение режима : CM (complete main)
    Режим смешивания : DVD-Video
    Продолжительность : 20 м.
    Вид битрейта : Постоянный
    Битрейт : 448 Кбит/сек
    Каналы : 6 каналов
    Расположение каналов : Front: L C R, Side: L R, LFE
    Частота : 48,0 КГц
    Битовая глубина : 16 бит
    Метод сжатия : С потерями
    Размер потока : 66,0 Мбайт (6%)

    Аудио #2
    Идентификатор : 189 (0xBD)-129 (0x81)
    Формат : AC-3
    Формат/Информация : Audio Coding 3
    Расширение режима : CM (complete main)
    Режим смешивания : DVD-Video
    Продолжительность : 20 м.
    Вид битрейта : Постоянный
    Битрейт : 384 Кбит/сек
    Каналы : 6 каналов
    Расположение каналов : Front: L C R, Side: L R, LFE
    Частота : 48,0 КГц
    Битовая глубина : 16 бит
    Метод сжатия : С потерями
    Размер потока : 56,6 Мбайт (6%)

    Аудио #3
    Идентификатор : 189 (0xBD)-130 (0x82)
    Формат : AC-3
    Формат/Информация : Audio Coding 3
    Расширение режима : CM (complete main)
    Режим смешивания : DVD-Video
    Продолжительность : 20 м.
    Вид битрейта : Постоянный
    Битрейт : 384 Кбит/сек
    Каналы : 6 каналов
    Расположение каналов : Front: L C R, Side: L R, LFE
    Частота : 48,0 КГц
    Битовая глубина : 16 бит
    Метод сжатия : С потерями
    Размер потока : 56,6 Мбайт (6%)

    Текст #1
    Идентификатор : 189 (0xBD)-33 (0x21)
    Формат : RLE
    Формат/Информация : Run-length encoding
    Режим смешивания : DVD-Video
    Задержка видео : 5 с. 680 мс.

    Текст #2
    Идентификатор : 189 (0xBD)-38 (0x26)
    Формат : RLE
    Формат/Информация : Run-length encoding
    Режим смешивания : DVD-Video
    Задержка видео : 5 с. 680 мс.

    Текст #3
    Идентификатор : 189 (0xBD)-41 (0x29)
    Формат : RLE
    Формат/Информация : Run-length encoding
    Режим смешивания : DVD-Video
    Задержка видео : 5 с. 680 мс.

    Текст #4
    Идентификатор : 189 (0xBD)-43 (0x2B)
    Формат : RLE
    Формат/Информация : Run-length encoding
    Режим смешивания : DVD-Video
    Задержка видео : 5 с. 680 мс.

    Меню
Свернуть
Скриншоты

меню
Изображение
Изображение
Изображение
Свернуть
Изображение
Изображение
Изображение
Свернуть
Не в сети
Профиль  
Начать новую темуОтветить на тему  [ 1 сообщение ] 
Вы не можете начинать темы
Вы не можете отвечать на сообщения
Вы не можете редактировать свои сообщения
Вы не можете удалять свои сообщения