Правила форума

  • В этом разделе создание новых тем Запрещено.
  • Для создания новых тем пользуйтесь Корневым разделом DVD и HD фильмы.
Начать новую темуОтветить на тему  [ Сообщений: 2 ] 
Торрент файл
Размер: 4.36 GB • Зарегистрирован: 3 года 7 месяцев • Статус: Проверено
Скачан: 10 раз • Желающих скачать: 0 • Поблагодарили: 3 раза
 Раздают: 0  |  0 KB/s  ]   Качают: 0  |  0 KB/s  ] 
 Полного источника не было 1 год 11 месяцев 
Сообщения
 Добавлено: 2013-04-18 00:09
Аватара пользователя
Стаж: 8 лет 7 месяцев
Сообщений: 80
Спасибок: 736
Лапочка / Honey

Изображение


Год выпуска: 2003
Страна: США
Слоган: «Her dream. Her terms.»
Жанр: драма, мелодрама, музыка
Продолжительность: 01:33:55
Перевод: Профессиональный (дубляж)
Субтитры: Русские

Режиссёр: Билле Вудрафф
Сценарист: Алонсо Браун, Ким Уотсон
Продюсер: Андре Харрелл, Марк Э. Платт, Николь Браун
Оператор: Джон Р. Леонетти
Композитор: Мервин Уоррен
В ролях: Джессика Альба, Лил Ромео, Мехи Файфер, Дэвид Москоу, Захари Уильямс, Джой Брайант, Мисси «Мисдеминор» Эллиотт, Энтони Шервуд, Лонетт МакКи, Уэсли Пэрис
Описание: Талантливая танцовщица Хани Дэниэлс всю жизнь ждала того счастливого часа, когда она сможет показать свой танец всему миру. И сейчас, все, о чем она так мечтала, находится на расстоянии одного шага от нее. В течение многих лет профессиональные амбиции давали одаренной танцовщице и честолюбивому хореографу силы продвигаться вперед. Хотя у родных и друзей Хани порой закрадывались серьезные сомнения, в том, что она сможет добиться успехов в такой сложной сфере как шоу-бизнес. Не согласившись с мнением своих родителей, что нужно выбрать более надежный род деятельности, который гарантирует обеспеченное будущее, Хани переезжает в центр города, где улицы полны шума, энергии и музыки. Музыка - путеводная звезда Хани.
Бюджет: $18 000 000
Кассовые сборы: сборы в США: $30 308 417
сборы в мире: + $28 448 229 = $58 756 646
сборы в России: $280 000
Изображение 7.013 15 348
Изображение
Оформление и раздача релиза:Изображение

Качество: DVD5
Формат: DVD Video
Видео кодек: MPEG2
Аудио кодек: AC3 (Dolby Digital)
Видео: PAL 16:9 (720x576) VBR Auto Letterboxed
Аудио #1: Russian (Dolby AC3, 6 ch) English (Dolby AC3, 6 ch) [Профессиональный (дубляж)]
"MediaInfo"
Общее
Полное имя : D:\Film\Honey\VIDEO_TS\VTS_04_2.VOB
Формат : MPEG-PS
Размер файла : 1024 Мбайт
Продолжительность : 24 м.
Режим общего битрейта : Переменный
Общий поток : 5881 Кбит/сек

Видео
Идентификатор : 224 (0xE0)
Формат : MPEG Video
Версия формата : Version 2
Профиль формата : Main@Main
Параметр BVOP формата : Да
Параметр матрицы формата : Выборочная
Параметр GOP формата : M=3, N=15
Продолжительность : 24 м.
Вид битрейта : Переменный
Битрейт : 4868 Кбит/сек
Максимальный битрейт : 9000 Кбит/сек
Ширина : 720 пикселей
Высота : 576 пикселей
Соотношение сторон : 16:9
Частота кадров : 25,000 кадров/сек
Стандарт вещания : PAL
Цветовое пространство : YUV
Субдискретизация насыщенности : 4:2:0
Битовая глубина : 8 бит
Тип развёртки : Чересстрочная
Порядок развёртки : Верхнее поле первое
Метод сжатия : С потерями
Бит/(Пиксели*Кадры) : 0.469
TimeCode_FirstFrame : 01:24:11:10
TimeCode_Source : Group of pictures header
Размер потока : 847 Мбайт (83%)

Аудио #1
Идентификатор : 189 (0xBD)-128 (0x80)
Формат : AC-3
Формат/Информация : Audio Coding 3
Расширение режима : CM (complete main)
Параметр Endianness формата : Big
Режим смешивания : DVD-Video
Продолжительность : 24 м.
Вид битрейта : Постоянный
Битрейт : 448 Кбит/сек
Каналы : 6 каналов
Расположение каналов : Front: L C R, Side: L R, LFE
Частота : 48,0 КГц
Битовая глубина : 16 бит
Метод сжатия : С потерями
Задержка видео : -440 мс.
Размер потока : 78,0 Мбайт (8%)

Аудио #2
Идентификатор : 189 (0xBD)-129 (0x81)
Формат : AC-3
Формат/Информация : Audio Coding 3
Расширение режима : CM (complete main)
Параметр Endianness формата : Big
Режим смешивания : DVD-Video
Продолжительность : 24 м.
Вид битрейта : Постоянный
Битрейт : 448 Кбит/сек
Каналы : 6 каналов
Расположение каналов : Front: L C R, Side: L R, LFE
Частота : 48,0 КГц
Битовая глубина : 16 бит
Метод сжатия : С потерями
Задержка видео : -440 мс.
Размер потока : 78,0 Мбайт (8%)

Текст
Идентификатор : 189 (0xBD)-32 (0x20)
Формат : RLE
Формат/Информация : Run-length encoding
Режим смешивания : DVD-Video
Продолжительность : 24 м.
Задержка видео : 2 с. 160 мс.
Свернуть
Скриншоты
Изображение

Изображение

Изображение

Изображение

Изображение

Изображение

Свернуть


Последний раз редактировалось respecct 2013-04-20 01:50, всего редактировалось 3 раз(а).
Не в сети
Профиль  
 Добавлено: 2013-04-18 08:19 (спустя 8 часов)
Модератор
Аватара пользователя
Стаж: 8 лет 11 месяцев
Сообщений: 516
Спасибок: 26888
Лайков: 1
Внимание: Для DVD и HD-разделов необходимы развернутые технические данные:
Для DVD: Отчет DVDInfo (под спойлером)
Не в сети
Профиль  
Начать новую темуОтветить на тему  [ Сообщений: 2 ] 
Вы не можете начинать темы
Вы не можете отвечать на сообщения
Вы не можете редактировать свои сообщения
Вы не можете удалять свои сообщения