Правила форума

  • В этом разделе создание новых тем Запрещено.
  • Для создания новых тем пользуйтесь Корневым разделом DVD и HD фильмы.
Начать новую темуОтветить на тему  [ Сообщений: 2 ] 
Торрент файл
Размер: 6.83 GB • Зарегистрирован: 5 лет 5 месяцев • Статус: Проверено
Скачан: 124 раза • Желающих скачать: 0 • Поблагодарили: 24 раза
 Раздают: 0  |  0 KB/s  ]   Качают: 0  |  0 KB/s  ] 
 Полного источника не было 3 года 2 месяца 
Сообщения
 Добавлено: 2011-06-28 17:13
Аватара пользователя
Стаж: 5 лет 5 месяцев
Возраст: 30
Сообщений: 353
Спасибок: 7455
Любовь: Инструкция по применению / Manuale d'am3re

Изображение


Год выпуска: 2011
Страна: Италия (Filmauro S.r.l.)
Слоган: «Любви все возрасты покорны»
Жанр: мелодрама, комедия
Продолжительность: 02:01:07
Перевод: Профессиональный (дубляж)
Дублеры: Александр Клюквин, Марианна Шульц, Всеволод Кузнецов, Тимофей Спивак, Татьяна Шитова + Профессиональный (дубляж)
Дублеры: Александр Клюквин, Марианна Шульц, Всеволод Кузнецов, Тимофей Спивак, Татьяна Шитова + Оригинальная звуковая дорожка

Режиссёр: Джованни Веронези / Giovanni Veronesi
Сценарист: Уго Кити, Джованни Веронези
Продюсер: Луиджи Де Лаурентиис мл., Аурелио Де Лаурентис, Маурицио Амати
Оператор: Джованни Каневари
В ролях: Роберт Де Ниро, Моника Беллуччи, Риккардо Скамарчио, Микеле Плачидо, Лаура Кьятти, Валерия Соларино, Карло Вердоне, Донателла Финокьяро, Даниэле Печчи, Марина Рокко

Описание: Три новеллы повествуют о том, какой бывает любовь в разные периоды жизни и как переплетения судеб и житейские случайности помогают разобраться в природе человеческих чувств. «Молодость» — это история, молодого амбициозного юриста Роберто, которого накануне своей свадьбы неожиданно ослепляет вспышка страсти к совсем другой женщине…
В «Зрелости» успешный телеведущий Фабио, преданный муж и заботливый отец, по стечению удивительных обстоятельств оказывается в объятиях молодой Элианы…
«После» — история Адриана, американского профессора истории искусств, который после развода решает переехать в Рим. Он одинок и подавлен. Единственный, кто проявляет к Адриану хоть какой-то интерес3D — это швейцар Августо. Именно ему Адриан рассказывает свою тайну: семь лет назад он перенес сложнейшую операцию на сердце. Сжалившись над одиноким Адрианом, Августо приводит его в свой дом и знакомит со своей семьей. Но как только Адриан видит красавицу-дочь Августо, он мгновенно забывает о шрамах на своем сердце.

Доп.информация: Фотогаллерея
Мировая премьера: 25 февраля 2011
Премьера в России: 9 июня 2011, «Каравелла DDC»

Изображение Изображение Изображение

Качество: DVD9 R5
Формат: DVD Video
Видео кодек: MPEG2
Аудио кодек: AC3 (Dolby Digital)
Видео: PAL 16:9 (720x576(0.628)) MPEG Video, 25,000 кадр/сек, 6508 Кбит/сек
Аудио #1: Russian (Dolby AC3, 6 ch) 384 Кбит/сек, 48,0 КГц [Профессиональный (дубляж)]
Аудио #2: Russian (Dolby AC3, 2 ch) 192 Кбит/сек, 48,0 КГц [Профессиональный (дубляж)]
Аудио #3: Italiano (Dolby AC3, 6 ch) 384 Кбит/сек, 48,0 КГц [Оригинальная звуковая дорожка]

"DVDInfo"
Title: Мой диск
Size: 6.83 Gb ( 7 162 542 KBytes ) - DVD-9
Enabled regions: 1, 2, 3, 4, 5, 6, 7, 8

VTS_01 :
Play Length: 00:00:01+02:01:07
Video: PAL 16:9 (720x576) VBR, Auto Pan&Scan
Audio:
Russian (Dolby AC3, 6 ch)
Russian (Dolby AC3, 2 ch)
Italiano (Dolby AC3, 6 ch)
Subtitles:
Russian

VTS_02 :
Play Length: 00:00:01+00:00:05+00:00:13
Video: PAL 16:9 (720x576) VBR, Auto Pan&Scan
Audio:
Russian (Dolby AC3, 6 ch)

VTS_03 :
Play Length: 00:00:01+00:00:12+00:00:44
Video: PAL 16:9 (720x576) VBR, Auto Pan&Scan
Audio:
Russian (Dolby AC3, 2 ch)

VTS_04 :
Play Length: 00:00:01+00:00:27
Video: PAL 4:3 (720x576) VBR
Audio:
Russian (Dolby AC3, 2 ch)

VTS_05 :
Play Length: 00:00:01+00:00:48
Video: PAL 16:9 (720x576) VBR, Auto Pan&Scan
Audio:
Russian (Dolby AC3, 2 ch)

Menu Video:
NTSC 4:3 (720x480) VBR
Auto Pan&Scan, Auto Letterboxed
Menu Russian Language Unit :
Root Menu
Angle menu
Chapter (PTT) Menu
Свернуть


"MediaInfo"
Общее
Полное имя : E:\Новинки 2011\Lubov.instrukciya.po.primeneniyu.2011.DVD9\VIDEO_TS\VTS_01_1.VOB
Формат : MPEG-PS
Размер файла : 1024 Мбайт
Продолжительность : 18 м.
Общий поток : 7620 Кбит/сек

Видео
Идентификатор : 224 (0xE0)
Формат : MPEG Video
Версия формата : Version 2
Профиль формата : Main@Main
Параметр BVOP формата : Да
Параметр матрицы формата : Выборочная
Продолжительность : 18 м.
Вид битрейта : Постоянный
Битрейт : 6508 Кбит/сек
Номинальный битрейт : 6000 Кбит/сек
Ширина : 720 пикс.
Высота : 576 пикс.
Соотношение сторон : 16:9
Частота кадров : 25,000 кадр/сек
Стандарт вещания : PAL
Цветовое пространство : YUV
Подвыборка цветности : 4:2:0
Битовая глубина : 8 бит
Тип развёртки : Чересстрочная
Порядок развёртки : Нижнее поле первое
Метод сжатия : С потерями
Бит/(Пиксели*Кадры) : 0.628
Размер потока : 874 Мбайт (85%)

Аудио #1
Идентификатор : 189 (0xBD)-128 (0x80)
Формат : AC-3
Формат/Информация : Audio Coding 3
Расширение режима : CM (complete main)
Режим смешивания : DVD-Video
Продолжительность : 18 м.
Вид битрейта : Постоянный
Битрейт : 384 Кбит/сек
Каналы : 6 каналов
Расположение каналов : Front: L C R, Side: L R, LFE
Частота : 48,0 КГц
Битовая глубина : 16 бит
Метод сжатия : С потерями
Размер потока : 51,6 Мбайт (5%)

Аудио #2
Идентификатор : 189 (0xBD)-129 (0x81)
Формат : AC-3
Формат/Информация : Audio Coding 3
Расширение режима : CM (complete main)
Режим смешивания : DVD-Video
Продолжительность : 18 м.
Вид битрейта : Постоянный
Битрейт : 192 Кбит/сек
Каналы : 2 канала
Расположение каналов : Front: L R
Частота : 48,0 КГц
Битовая глубина : 16 бит
Метод сжатия : С потерями
Размер потока : 25,8 Мбайт (3%)

Аудио #3
Идентификатор : 189 (0xBD)-130 (0x82)
Формат : AC-3
Формат/Информация : Audio Coding 3
Расширение режима : CM (complete main)
Режим смешивания : DVD-Video
Продолжительность : 18 м.
Вид битрейта : Постоянный
Битрейт : 384 Кбит/сек
Каналы : 6 каналов
Расположение каналов : Front: L C R, Side: L R, LFE
Частота : 48,0 КГц
Битовая глубина : 16 бит
Метод сжатия : С потерями
Размер потока : 51,6 Мбайт (5%)

Свернуть

Скриншоты
Скриншоты меню
Изображение
Изображение
Изображение
Свернуть
Изображение
Изображение
Изображение
Изображение
Изображение
Изображение
Изображение
Изображение
Свернуть


Изображение
Не в сети
Профиль  
 Добавлено: 2011-07-02 15:28 (спустя 3 дня)
Аватара пользователя
Стаж: 5 лет 5 месяцев
Сообщений: 36
DVD обложка для пользователей форума + 2 диска

Изображение
ИзображениеИзображение

Свернуть

3D обложка для раздачи

Вариант №1.
Предпросмотр
Изображение
Свернуть
[img=right]http://i24.fastpic.ru/big/2011/0702/71/0b04a6491e78fc445f119644cd3ff871.png[/img]

Вариант №2.
Предпросмотр
Изображение
Свернуть
[img=right]http://i25.fastpic.ru/big/2011/0702/ad/0d52830ae38e5205cfdc3f597fc238ad.png[/img]



Свернуть
Не в сети
Профиль  
Начать новую темуОтветить на тему  [ Сообщений: 2 ] 
Вы не можете начинать темы
Вы не можете отвечать на сообщения
Вы не можете редактировать свои сообщения
Вы не можете удалять свои сообщения