Правила форума

  • В этом разделе создание новых тем Запрещено.
  • Для создания новых тем пользуйтесь Корневым разделом DVD и HD фильмы.
Начать новую темуОтветить на тему  [ 1 сообщение ] 
Торрент файл
Размер: 5.27 GB • Зарегистрирован: 4 года 5 месяцев • Статус: Проверено
Скачан: 56 раз • Желающих скачать: 0 • Поблагодарили: 14 раз
 Раздают: 0  |  0 KB/s  ]   Качают: 0  |  0 KB/s  ] 
 Полного источника не было 3 года 2 месяца 
Сообщения
 Добавлено: 2012-07-03 15:32
Аватара пользователя
Стаж: 5 лет 6 месяцев
Возраст: 30
Сообщений: 353
Спасибок: 7455
Любовь живет три года / L'amour dure trois ans

Изображение


Год выпуска: 2011
Страна: Франция, Бельгия (AKN Productions, Backup Films, Canal+ [fr], Ciné, Coficup, Europa Corp., France 2 Cinéma, France Télévision, Scope Pictures, The Film)
Слоган: «Любовь в XXI веке - это СМС без ответа»
Жанр: комедия
Продолжительность: 01:33:56
Перевод: Профессиональный (дубляж)
Дублеры: Сергей Смирнов, Александр Воронов + Оригинальная звуковая дорожка + Профессиональный (многоголосый закадровый)
Субтитры: Русские

Режиссёр: Фредерик Бегбедер / Frédéric Beigbeder
Сценарист: Фредерик Бегбедер, Эжени Грандваль, Кристоф Тюрпи
Продюсер: Майкл Джентиле, Ален Крюгер, Lauraine Heftler
Оператор: Ив Кап
Композитор: Мартин Раппено
В ролях: Гаспар Пруст, Луиз Бургуан, Джои Старр, Джонатан Ламберт, Фредерик Бель, Николас Бедос, Элиза Сенауи, Бернар Менез, Анни Дюпре, Тома Жуанне...

Описание: Главный герой — журналист Марк Марронье, пишущий светскую хронику. Он уверен, что любовь живёт три года: сначала люди страстно любят друг друга, потом нежно и по-дружески, а потом им становится скучно. Причины таких взглядов кроются в том, что сам Марк никогда не любил больше трёх лет…

Доп.информация: Трейлер
Мировая премьера: 10 декабря 2011
Премьера в России: 10 мая 2012, «Cinema Prestige»
Кассовые сборы: $601 275

Изображение Изображение Изображение

Качество: DVD9 R5
Формат: DVD Video
Видео кодек: MPEG2
Аудио кодек: AC3 (Dolby Digital)
Видео: PAL 16:9 (720x576(0.632)) MPEG Video, 25,000 кадр/сек, 6550 Кбит/сек
Аудио #1: Russian (Dolby AC3, 6 ch) 384 Кбит/сек, 48,0 КГц [Профессиональный (дубляж)]
Аудио #2: Francais (Dolby AC3, 6 ch) 384 Кбит/сек, 48,0 КГц [Оригинальная звуковая дорожка]
Аудио #3: Russian (Dolby AC3, 6 ch) 384 Кбит/сек, 48,0 КГц [Профессиональный (многоголосый закадровый)]
Субтитры: Русские

"DVDInfo"
Title:
Size: 5.27 Gb ( 5 528 216 KBytes ) - DVD-9
Enabled regions: 1, 2, 3, 4, 5, 6, 7, 8

VTS_01 :
Play Length: 00:00:10
Video: PAL 16:9 (720x576) VBR, Auto Letterboxed

VTS_02 :
Play Length: 00:00:05
Video: PAL 16:9 (720x576) VBR, Auto Letterboxed
Audio:
English (Dolby AC3, 6 ch)

VTS_03 :
Play Length: 00:02:00
Video: PAL 16:9 (720x576) VBR, Auto Letterboxed
Audio:
Russian (Dolby AC3, 2 ch)
Francais (Dolby AC3, 2 ch)

VTS_04 :
Play Length: 01:33:55
Video: PAL 16:9 (720x576) VBR, Auto Pan&Scan, Auto Letterboxed
Audio:
Russian (Dolby AC3, 6 ch)
Francais (Dolby AC3, 6 ch)
Russian (Dolby AC3, 6 ch)
Subtitles:
Russian

Menu Video:
PAL 16:9 (720x576) VBR
Auto Pan&Scan, Auto Letterboxed
Menu Subtitles:
Not specified
Menu English Language Unit :
Root Menu
Свернуть

"MediaInfo"
Общее
Полное имя : J:\Новинки 2012\Ljubov'.zhivet.tri.goda .2011.DVD9\VIDEO_TS\VTS_04_2.VOB
Формат : MPEG-PS
Размер файла : 1024 Мбайт
Продолжительность : 18 м.
Режим общего битрейта : Переменный
Общий поток : 7858 Кбит/сек

Видео
Идентификатор : 224 (0xE0)
Формат : MPEG Video
Версия формата : Version 2
Профиль формата : Main@Main
Параметр BVOP формата : Да
Параметр матрицы формата : По умолчанию
Параметр GOP формата : M=3, N=12
Продолжительность : 18 м.
Вид битрейта : Переменный
Битрейт : 6550 Кбит/сек
Максимальный битрейт : 8300 Кбит/сек
Ширина : 720 пикселей
Высота : 576 пикселей
Соотношение сторон : 16:9
Частота кадров : 25,000 кадров/сек
Стандарт вещания : PAL
Цветовое пространство : YUV
Субдискретизация насыщенности : 4:2:0
Битовая глубина : 8 бит
Тип развёртки : Чересстрочная
Порядок развёртки : Верхнее поле первое
Метод сжатия : С потерями
Бит/(Пиксели*Кадры) : 0.632
Размер потока : 853 Мбайт (83%)

Аудио #1
Идентификатор : 189 (0xBD)-128 (0x80)
Формат : AC-3
Формат/Информация : Audio Coding 3
Расширение режима : CM (complete main)
Параметр Endianness формата : Big
Режим смешивания : DVD-Video
Продолжительность : 18 м.
Вид битрейта : Постоянный
Битрейт : 384 Кбит/сек
Каналы : 6 каналов
Расположение каналов : Front: L C R, Side: L R, LFE
Частота : 48,0 КГц
Битовая глубина : 16 бит
Метод сжатия : С потерями
Задержка видео : -560 мс.
Размер потока : 50,0 Мбайт (5%)

Аудио #2
Идентификатор : 189 (0xBD)-129 (0x81)
Формат : AC-3
Формат/Информация : Audio Coding 3
Расширение режима : CM (complete main)
Параметр Endianness формата : Big
Режим смешивания : DVD-Video
Продолжительность : 18 м.
Вид битрейта : Постоянный
Битрейт : 384 Кбит/сек
Каналы : 6 каналов
Расположение каналов : Front: L C R, Side: L R, LFE
Частота : 48,0 КГц
Битовая глубина : 16 бит
Метод сжатия : С потерями
Задержка видео : -560 мс.
Размер потока : 50,0 Мбайт (5%)

Аудио #3
Идентификатор : 189 (0xBD)-130 (0x82)
Формат : AC-3
Формат/Информация : Audio Coding 3
Расширение режима : CM (complete main)
Параметр Endianness формата : Big
Режим смешивания : DVD-Video
Продолжительность : 18 м.
Вид битрейта : Постоянный
Битрейт : 384 Кбит/сек
Каналы : 6 каналов
Расположение каналов : Front: L C R, Side: L R, LFE
Частота : 48,0 КГц
Битовая глубина : 16 бит
Метод сжатия : С потерями
Задержка видео : -560 мс.
Размер потока : 50,0 Мбайт (5%)

Текст
Идентификатор : 189 (0xBD)-32 (0x20)
Формат : RLE
Формат/Информация : Run-length encoding
Режим смешивания : DVD-Video
Продолжительность : 18 м.
Задержка видео : 1 с. 400 мс.

Свернуть

Скриншоты
Скриншоты меню
Изображение
Изображение
Изображение
Свернуть
Изображение
Изображение
Изображение
Изображение
Изображение
Изображение
Изображение
Изображение
Изображение
Изображение
Свернуть

Знаете ли Вы, что...
Фильм поставлен по одноимённому роману Фредерика Бегбедера, который был опубликован во Франции в 1997 году. Книга содержала ряд автобиографических элементов, что много лет спустя подтолкнуло автора дать согласие самому заняться её экранизацией.
Поначалу речь вовсе не шла о том, что экранизацией своего романа займется сам Фредерик Бегбедер. Права на книгу были куплены ещё в 2006 году, продюсеры уходили и приходили, а проект не двигался с мёртвой точки. В конечном счёте взявшие дело в свои руки продюсеры Ален Крюгер и Майкл Джентиле сделали предложение автору, а тот после долгих сомнений ответил согласием.
Открывающие фильм титры и несколько ночных сцен были сняты с помощью камеры Canon EOS 5D. Недорогая и очень лёгкая в обращении эта камера применялась при съёмках таких французских фильмов, как «Сорванец» (2011) и «Я объявляю войну» (2011).
Свернуть

Изображение
Не в сети
Профиль  
Начать новую темуОтветить на тему  [ 1 сообщение ] 
Вы не можете начинать темы
Вы не можете отвечать на сообщения
Вы не можете редактировать свои сообщения
Вы не можете удалять свои сообщения