Правила форума

  • В этом разделе создание новых тем Запрещено.
  • Для создания новых тем пользуйтесь Корневым разделом DVD и HD фильмы.
Начать новую темуОтветить на тему  [ Сообщений: 3 ] 
Торрент файл
Размер: 4.25 GB • Зарегистрирован: 5 лет 2 месяца • Статус: Проверено
Скачан: 202 раза • Желающих скачать: 0 • Поблагодарили: 27 раз
 Раздают: 0  |  0 KB/s  ]   Качают: 0  |  0 KB/s  ] 
 Полного источника не было 2 года 7 месяцев 
Сообщения
 Добавлено: 2011-09-23 17:44
Аватара пользователя
Стаж: 8 лет 3 месяца
Возраст: 43
Сообщений: 3290
Спасибок: 21012
Лайков: 3
Любовь с риском для жизни / La chance de ma vie

Изображение

Год выпуска: 2010
Страна: Франция, Бельгия
Слоган: «Страховка не прилагается»

Жанр: мелодрама, комедия
Продолжительность: 01:27:24
Перевод: Профессиональный (полное дублирование)
Русские субтитры: есть

Режиссер: Николя Кюш / Nicolas Cuche
Сценарий: Лорен Тернер / Laurent Turner, Люк Босси / Luc Bossi
Продюсер: Оливье Делбоск / Olivier Delbosc, Эрик Йехельманн / Eric Jehelmann, Марк Миссонье / Marc Missonnier, Женевьева Лемаль / Genevieve Lemal
Оператор: José Gerel
Композитор: Кристоф Ла Пинта / Christophe Lapinta

Изображение
Франсуа-Ксавье Демезон (Julien Monnier), Вирджиния Эфира (Johanna Sorini), Армель Дойч (Sophie), Рафаэль Персонас (Martin Dupont), Томас Н’Гиоль (Vincent), Брижит Роюан (Lydie), Ив Жак (Maxime Dupont), Мари-Кристин Адам (Dominique, la mère de Julien), Эли Семун (Philippe Markus), Франсис Перрен (François, le père de Julien), Фрэнк Молинаро (André), Джералд Марти (M. Brochand)
Дублёры: Диомид Виноградов (Julien Monnier), Татьяна Шитова (Johanna Sorini), Иван Жарков, Даниил Эльдаров, Наталья Грачева, Илья Бледный (Philippe Markus), Любовь Германова, Михаил Тихонов (André), Вячеслав Баранов, Даниил Щебланов, Нина Тобилевич, Олег Форостенко
Бюджет: €5 000 000
Сборы в России: $1 114 625

Мировая премьера: 5 ноября 2010
Релиз на DVD: 8 сентября 2011, «CP-Digital»
Релиз на Blu-ray: 8 сентября 2011, «CP-Digital»
Изображение
У Жюльена серьезная проблема. Он прекрасный консультант в брачных вопросах, но не одна женщина не остается с ним дольше, чем на две недели. Он приносит им несчастье. Не абстрактную неудачу, а вполне конкретное несчастье: его женщины или попадают в больницу несколько раз в неделю, или у них рушится карьера, или они ссорятся навсегда со своими близкими. Джоанна убедится в этом на собственном опыте. В день, когда их пути пересеклись ее карьера находилась на взлете, ее личная жизнь наконец наладилась… Все это может очень быстро измениться.
Изображение
Изображение
Качество: DVD5 (сжатый)
Формат: MPEG-PS
Видео: MPEG-2 Video; 720x576 (16:9); 5862 Kbps; 25 fps; 0,565 bpp
Аудио №1: AC3; 448 Kbps; CBR; 6 ch Русский
Аудио №2: AC3; 448 Kbps; CBR; 6 ch Французский
Субтитры: Русские
сделано из Исходник удалено: Все допы, Русский DTS. (кнопки в меню затёрты). Меню статичное
Редактирование происходило с помощью: DVDRemake Pro; Adobe Photoshop CS; MuxMan. Сжатие 0%
Проверено на софтовом плеере CyberLink PowerDVD 10 и на бытовом AKAI
Релиз и раздача: Изображение
"DVDInfo"

Title: Lubov' s riskom dlya jizni.2010.DVD5.DVDRG
Size: 4.25 Gb ( 4 459 542,00 KBytes ) - DVD-5
Enabled regions: 1, 2, 3, 4, 5, 6

VTS_01 :
Play Length: 00:00:05
Video: PAL 4:3 (720x576) VBR
Subtitles:
English
English

VTS_02 :
Play Length: 00:00:15
Video: PAL 16:9 (720x576) VBR, Auto Letterboxed
Audio:
Not specified (Dolby AC3, 6 ch)
Not specified (Dolby AC3, 6 ch)
Not specified (Dolby AC3, 6 ch)
Subtitles:
Not specified

VTS_03 :
Play Length: 00:00:00
Video: PAL 16:9 (720x576) VBR, Auto Letterboxed
Audio:
Not specified (Dolby AC3, 2 ch)
Not specified (Dolby AC3, 2 ch)
Not specified (Dolby AC3, 2 ch)
Subtitles:
Not specified

VTS_04 :
Play Length: 01:27:24
Video: PAL 16:9 (720x576) VBR, Auto Letterboxed
Audio:
Russian (Dolby AC3, 6 ch)
Francais (Dolby AC3, 6 ch)
Subtitles:
Russian

VTS_05 :
Play Length: 00:00:00
Video: PAL 16:9 (720x576) VBR, Auto Letterboxed
Audio:
Not specified (Dolby AC3, 2 ch)
Subtitles:
Not specified

VTS_06 :
Play Length: 00:00:00
Video: PAL 16:9 (720x576) VBR, Auto Letterboxed
Audio:
Not specified (Dolby AC3, 2 ch)
Subtitles:
Not specified

VTS_07 :
Play Length: 00:00:00
Video: PAL 16:9 (720x576) VBR, Auto Letterboxed
Audio:
Not specified (Dolby AC3, 2 ch)
Subtitles:
Not specified

VTS_08 :
Play Length: 00:00:00
Video: PAL 16:9 (720x576) VBR, Auto Letterboxed
Audio:
Not specified (Dolby AC3, 6 ch)
Subtitles:
Not specified

VTS_09 :
Play Length: 00:00:00
Video: PAL 16:9 (720x576) VBR, Auto Letterboxed
Audio:
Not specified (Dolby AC3, 2 ch)
Subtitles:
Not specified

VTS_10 :
Play Length: 00:00:00
Video: PAL 16:9 (720x576) VBR, Auto Letterboxed
Audio:
Not specified (Dolby AC3, 2 ch)

VTS_11 :
Play Length: 00:00:00
Video: PAL 16:9 (720x576) VBR, Auto Letterboxed
Audio:
Not specified (Dolby AC3, 2 ch)

Свернуть
"MediaInfo"

Общее
Полное имя : D:\DEMUX !!!\Lubov' s riskom dlya jizni.2010.DVD5.DVDRG\VIDEO_TS\VTS_04_3.VOB
Формат : MPEG-PS
Размер файла : 1024 Мбайт
Продолжительность : 20 м.
Режим общего битрейта : Переменный
Общий поток : 7034 Кбит/сек

Видео
Идентификатор : 224 (0xE0)
Формат : MPEG Video
Версия формата : Version 2
Профиль формата : Main@Main
Параметр BVOP формата : Да
Параметр матрицы формата : По умолчанию
Параметр GOP формата : M=3, N=12
Продолжительность : 20 м.
Вид битрейта : Переменный
Битрейт : 5998 Кбит/сек
Максимальный битрейт : 8000 Кбит/сек
Ширина : 720 пикселей
Высота : 576 пикселей
Соотношение сторон : 16:9
Частота кадров : 25,000 кадров/сек
Стандарт вещания : PAL
Цветовое пространство : YUV
Субдискретизация насыщенности : 4:2:0
Битовая глубина : 8 бит
Тип развёртки : Прогрессивная
Метод сжатия : С потерями
Бит/(Пиксели*Кадры) : 0.579
Размер потока : 873 Мбайт (85%)

Аудио #1
Идентификатор : 189 (0xBD)-128 (0x80)
Формат : AC-3
Формат/Информация : Audio Coding 3
Расширение режима : CM (complete main)
Режим смешивания : DVD-Video
Продолжительность : 20 м.
Вид битрейта : Постоянный
Битрейт : 448 Кбит/сек
Каналы : 6 каналов
Расположение каналов : Front: L C R, Side: L R, LFE
Частота : 48,0 КГц
Битовая глубина : 16 бит
Метод сжатия : С потерями
Задержка видео : -640 мс.
Размер потока : 65,2 Мбайт (6%)

Аудио #2
Идентификатор : 189 (0xBD)-129 (0x81)
Формат : AC-3
Формат/Информация : Audio Coding 3
Расширение режима : CM (complete main)
Режим смешивания : DVD-Video
Продолжительность : 20 м.
Вид битрейта : Постоянный
Битрейт : 448 Кбит/сек
Каналы : 6 каналов
Расположение каналов : Front: L C R, Side: L R, LFE
Частота : 48,0 КГц
Битовая глубина : 16 бит
Метод сжатия : С потерями
Задержка видео : -640 мс.
Размер потока : 65,2 Мбайт (6%)

Текст
Идентификатор : 189 (0xBD)-32 (0x20)
Формат : RLE
Формат/Информация : Run-length encoding
Режим смешивания : DVD-Video
Продолжительность : 20 м.
Задержка видео : 3 с. 800 мс.

Меню

Свернуть
"Скриншоты"
"Меню"
Изображение
Изображение
Свернуть
Изображение
Изображение
Изображение
Изображение
Изображение
Изображение
Изображение
Свернуть
_________________
Изображение
Не в сети
Профиль  
 Добавлено: 2011-09-25 15:29 (спустя 1 день 21 час)
Кинокомментатор
Аватара пользователя
Стаж: 9 лет
Сообщений: 1331
Лайков: 52
Он прекрасный консультант в брачных вопросах,
эх) вот как устроиться брачным консультантом?) и что это работа?) надо посмотреть кино))
_________________
Я ВКонтакте
Не в сети
Профиль  
 Добавлено: 2011-09-27 19:09 (спустя 2 дня 3 часа)
Кинокомментатор
Аватара пользователя
Стаж: 9 лет
Сообщений: 1331
Лайков: 52
хорошее кино! мне очень понравилось! всё очень мило) легко) интересно) не так однообразно надумано, как в американском кино! очень даже оригинально) по европейски так:) мне понравилось:)
после просмотра только позитивные эмоции и лишь правильные думы о жизни!) классно:)
7/10
_________________
Я ВКонтакте
Не в сети
Профиль  
Начать новую темуОтветить на тему  [ Сообщений: 3 ] 
Вы не можете начинать темы
Вы не можете отвечать на сообщения
Вы не можете редактировать свои сообщения
Вы не можете удалять свои сообщения