Правила форума

  • В этом разделе создание новых тем Запрещено.
  • Для создания новых тем пользуйтесь Корневым разделом DVD и HD фильмы.
Начать новую темуОтветить на тему  [ Сообщений: 4 ] 
Торрент файл
Размер: 4.82 GB • Зарегистрирован: 4 года 7 месяцев • Статус: Проверено
Скачан: 687 раз • Желающих скачать: 0 • Поблагодарили: 73 раза
 Раздают: 0  |  0 KB/s  ]   Качают: 0  |  0 KB/s  ] 
 Полного источника не было 1 год 1 месяц 
Сообщения
 Добавлено: 2012-05-01 15:54
Аватара пользователя
Стаж: 5 лет 6 месяцев
Возраст: 30
Сообщений: 353
Спасибок: 7455
Мачо и ботан / 21 Jump Street

Изображение


Год выпуска: 2012
Страна: США (Cannell Studios, Columbia Pictures, Metro-Goldwyn-Mayer (MGM), Original Film, Relativity Media, Stephen J. Cannell Productions)
Слоган: «Операция «Анти-косяк»
Жанр: боевик, комедия, криминал
Продолжительность: 01:45:30
Перевод: Профессиональный (дубляж)
Дублеры: Роман Бурлаков, Андрей Кузнецов, Станислав Концевич, Александр Баргман + Профессиональный (дубляж)
Субтитры: Русские

Режиссёр: Фил Лорд, Крис Миллер / Phil Lord, Chris Miller
Сценарист: Майкл Бэколл, Патрик Хэсбург, Стефен Дж. Кэннел
Продюсер: Стефен Дж. Кэннел, Нил Х. Мориц, Джона Хилл
Оператор: Бэрри Петерсон
Композитор: Марк Мазерсбо
В ролях: Джона Хилл, Ченнинг Татум, Бри Ларсон, Дэйв Франко, Роб Риггл, Айс Кьюб, ДеРэй Дэвис, Дакс Флэйм, Крис Парнелл, Элли Кемпер

Описание: Двое новоиспеченных горе-полицейских отправляются на сверхсекретное задание. Им предстоит заново стать учениками средней школы, в которой процветает наркоторговля.

Доп.информация: нет
Рейтинг MPAA: Рейтинг R (Подростки до 17 лет допускаются на фильм только в сопровождении одного из родителей)
Мировая премьера: 12 марта 2012
Премьера в России: 12 апреля 2012, «WDSSPR»
Бюджет: $42 000 000
Кассовые сборы: $174 037 572

Изображение Изображение Изображение

Качество: DVD9 R5
Формат: DVD Video
Видео кодек: MPEG2
Аудио кодек: AC3 (Dolby Digital)
Видео: PAL 16:9 (720x576(0.528)) MPEG Video, 25,000 кадр/сек, 5479 Кбит/сек
Аудио #1: Russian (Dolby AC3, 6 ch) 448 Кбит/сек, 48,0 КГц [Профессиональный (дубляж)]
Аудио #2: Ukrainian (Dolby AC3, 6 ch) 448 Кбит/сек, 48,0 КГц [Профессиональный (дубляж)]
Субтитры: Русские

"DVDInfo"
Title:
Size: 4.82 Gb ( 5 057 448 KBytes ) - DVD-9
Enabled regions: 1, 2, 3, 4, 5, 6, 7, 8

VTS_01 :
Play Length: 01:45:30
Video: PAL 16:9 (720x576) VBR, Auto Letterboxed
Audio:
Russian (Dolby AC3, 6 ch)
Ukrainian (Dolby AC3, 6 ch)
Subtitles:
Russian

Menu Video:
PAL 16:9 (720x576) VBR
Auto Letterboxed
Menu Audio:
Not specified (Dolby AC3, 6 ch)
Menu Subtitles:
Not specified
Menu Russian Language Unit :
Root Menu
Audio Menu
Chapter (PTT) Menu
Свернуть

"MediaInfo"
Общее
Полное имя : J:\Новинки 2012\Macho.i.botan.2012.DVD9\VIDEO_TS\VTS_01_1.VOB
Формат : MPEG-PS
Размер файла : 1024 Мбайт
Продолжительность : 22 м.
Режим общего битрейта : Переменный
Общий поток : 6505 Кбит/сек

Видео
Идентификатор : 224 (0xE0)
Формат : MPEG Video
Версия формата : Version 2
Профиль формата : Main@Main
Параметр BVOP формата : Да
Параметр матрицы формата : Выборочная
Продолжительность : 22 м.
Вид битрейта : Переменный
Битрейт : 5479 Кбит/сек
Максимальный битрейт : 9000 Кбит/сек
Ширина : 720 пикселей
Высота : 576 пикселей
Соотношение сторон : 16:9
Частота кадров : 25,000 кадров/сек
Стандарт вещания : PAL
Цветовое пространство : YUV
Субдискретизация насыщенности : 4:2:0
Битовая глубина : 8 бит
Тип развёртки : Прогрессивная
Порядок развёртки : Верхнее поле первое
Метод сжатия : С потерями
Бит/(Пиксели*Кадры) : 0.528
Размер потока : 862 Мбайт (84%)

Аудио #1
Идентификатор : 189 (0xBD)-128 (0x80)
Формат : AC-3
Формат/Информация : Audio Coding 3
Расширение режима : CM (complete main)
Параметр Endianness формата : Big
Режим смешивания : DVD-Video
Продолжительность : 21 м.
Вид битрейта : Постоянный
Битрейт : 448 Кбит/сек
Каналы : 6 каналов
Расположение каналов : Front: L C R, Side: L R, LFE
Частота : 48,0 КГц
Битовая глубина : 16 бит
Метод сжатия : С потерями
Размер потока : 70,5 Мбайт (7%)

Аудио #2
Идентификатор : 189 (0xBD)-129 (0x81)
Формат : AC-3
Формат/Информация : Audio Coding 3
Расширение режима : CM (complete main)
Параметр Endianness формата : Big
Режим смешивания : DVD-Video
Продолжительность : 21 м.
Вид битрейта : Постоянный
Битрейт : 448 Кбит/сек
Каналы : 6 каналов
Расположение каналов : Front: L C R, Side: L R, LFE
Частота : 48,0 КГц
Битовая глубина : 16 бит
Метод сжатия : С потерями
Размер потока : 70,5 Мбайт (7%)

Свернуть

Скриншоты
Скриншоты меню
Изображение
Изображение
Изображение
Свернуть
Изображение
Изображение
Изображение
Изображение
Изображение
Изображение
Изображение
Изображение
Изображение
Изображение
Свернуть

Знаете ли Вы, что...
Джона Хилл написал эпизодическую роль специально для Джонни Деппа.
Эмма Стоун могла получить главную женскую роль, но она выбыла из проекта из-за несовпадения рабочих графиков в другом своем фильме - «Новый Человек-паук».
Свернуть

ИзображениеИзображение
Не в сети
Профиль  
 Добавлено: 2012-05-01 18:32 (спустя 2 часа 37 минут)
Аватара пользователя
Стаж: 8 лет 6 месяцев
Сообщений: 1638
Спасибок: 1723
Лайков: 3
Перевод тот же, что и здесь?
viewtopic.php?f=254&t=465338
Не в сети
Профиль  
 Добавлено: 2012-05-02 21:33 (спустя 1 день 3 часа)
Стаж: 5 лет 3 месяца
Сообщений: 150
Лайков: 2
Фильм класс!!!Поржал от души!!!! ;;-)))
Не в сети
Профиль  
 Добавлено: 2012-05-31 01:29 (спустя 28 дней)
Стаж: 7 лет 8 месяцев
Сообщений: 4
Прикольный фильм) первые полфильма-ржака ;;-)))
Не в сети
Профиль  
Начать новую темуОтветить на тему  [ Сообщений: 4 ] 
Вы не можете начинать темы
Вы не можете отвечать на сообщения
Вы не можете редактировать свои сообщения
Вы не можете удалять свои сообщения