Правила форума

  • В этом разделе создание новых тем Запрещено.
  • Для создания новых тем пользуйтесь Корневым разделом DVD и HD фильмы.
Начать новую темуОтветить на тему  [ Сообщений: 4 ] 
Торрент файл
Размер: 4.13 GB • Зарегистрирован: 3 года • Статус: Проверено
Скачан: 185 раз • Желающих скачать: 0 • Поблагодарили: 76 раз
 Раздают: 0  |  0 KB/s  ]   Качают: 0  |  0 KB/s  ] 
 Полного источника не было 5 часов 
Сообщения
 Добавлено: 2013-11-15 21:36
DVD Release Group
Аватара пользователя
Стаж: 7 лет 1 месяц
Сообщений: 3541
Спасибок: 246632
Лайков: 1016
Малавита

The Family


Изображение


Год выпуска: 2013
Страна: США, Франция
Жанр: Комедия, криминал
Продолжительность: 01:46:56
Перевод: Профессиональный (полное дублирование)
Режиссер: Люк Бессон
В ролях: Роберт Де Ниро, Мишель Пфайффер, Томми Ли Джонс, Дианна Агрон, Джон Фреда, Рикардо Сорберо, Доминик Кьянезе, Дэвид Белль, Джон Д’Лео, Джино Кафарелли
Описание: На тихой улочке провинциального французского городка поселился писатель по фамилии Блейк, со своим семейством и собакой Малавитой. На этом многовековое спокойствие города закончилось. Почему сгорел местный супермаркет? Чем рискует медлительный водопроводчик? Что лежит в рюкзаке у милого парня в бежевых бриджах? Никто и представить себе не мог, что на самом деле мистер Блейк — бывший глава мафии, которого власти прячут здесь от преследования. И вот в городок приезжают люди «Коза Ностры»…
Изображение
Качество: DVD5
Формат: DVD Video
Видео кодек: MPEG2
Аудио кодек: AC3
Видео: 720х576@1024x576 25fps 5089Kbps
Аудио: 48kHz 6ch 384kbps
"MediaInfo"
Формат : MPEG-PS
Размер файла : 1024 Мбайт
Продолжительность : 25 м.
Режим общего битрейта : Переменный
Общий поток : 5584 Кбит/сек

Видео
Идентификатор : 224 (0xE0)
Формат : MPEG Video
Версия формата : Version 2
Профиль формата : Main@Main
Параметр BVOP формата : Да
Параметр матрицы формата : Выборочная
Продолжительность : 25 м.
Вид битрейта : Переменный
Битрейт : 5089 Кбит/сек
Максимальный битрейт : 9000 Кбит/сек
Ширина : 720 пикселей
Высота : 576 пикселей
Соотношение сторон : 16:9
Частота кадров : 25,000 кадров/сек
Стандарт вещания : PAL
Цветовое пространство : YUV
Субдискретизация насыщенности : 4:2:0
Битовая глубина : 8 бит
Тип развёртки : Прогрессивная
Порядок развёртки : Верхнее поле первое
Метод сжатия : С потерями
Бит/(Пиксели*Кадры) : 0.491
Размер потока : 933 Мбайт (91%)

Аудио
Идентификатор : 189 (0xBD)-128 (0x80)
Формат : AC-3
Формат/Информация : Audio Coding 3
Расширение режима : CM (complete main)
Режим смешивания : DVD-Video
Продолжительность : 25 м.
Вид битрейта : Постоянный
Битрейт : 384 Кбит/сек
Каналы : 6 каналов
Расположение каналов : Front: L C R, Side: L R, LFE
Частота : 48,0 КГц
Битовая глубина : 16 бит
Метод сжатия : С потерями
Размер потока : 70,4 Мбайт (7%)

Меню
Свернуть

"Скриншоты"
Изображение
Изображение
Изображение
Изображение
Изображение
Изображение
Свернуть

Раздача группы:
Изображение
Не в сети
Профиль  
 Добавлено: 2013-11-30 17:15 (спустя 14 дней)
Стаж: 8 лет 7 месяцев
Сообщений: 3
Лайков: 1
кто посмотрел отпишитесь?? не хочется проходить мимо Де Ниро..))
Не в сети
Профиль  
 Добавлено: 2013-12-24 19:39 (спустя 24 дня)
Модератор
Аватара пользователя
Стаж: 8 лет 7 месяцев
Сообщений: 1724
Спасибок: 6358
Лайков: 18
отличный фильм, на одном дыхании. как мне кажется, достойное и логичное продолжение актерской карьеры Де Ниро в образе гангстера. Клюнул на фильм во многом из-за Скорсезе, и старики Мартин и Люк не подвели!
_________________
NEW!!!VA - Soulful Session 14/3 (2014) compiled by Sergei Maguskin
NEW!!!Above & Beyond - Acoustic (2014)
Не в сети
Профиль  
 Добавлено: 2014-01-19 00:06 (спустя 25 дней)
DVD Release Group
Аватара пользователя
Стаж: 7 лет 9 месяцев
Сообщений: 364
Спасибок: 3086
Лайков: 10
Фильм отличный, а лЫцензия собрана хреново. Это было просто гениально - заменить оригинальную дорожку на рекламу. На рутрэккере есть дублированная DTS дорожка под этот DVD, добавлю её и оригинал и соберу себе девятку (Custom).
Типа такого:
Cкрытый текст
Изображение
Свернуть

Похоже, качественной дорожки Гоблина на этот фильм не будет, очень жаль :'(
Не в сети
Профиль  
Начать новую темуОтветить на тему  [ Сообщений: 4 ] 
Вы не можете начинать темы
Вы не можете отвечать на сообщения
Вы не можете редактировать свои сообщения
Вы не можете удалять свои сообщения