Правила форума

  • В этом разделе создание новых тем Запрещено.
  • Для создания новых тем пользуйтесь Корневым разделом DVD и HD фильмы.
Начать новую темуОтветить на тему  [ Сообщений: 8 ] 
Торрент файл
Размер: 4.37 GB • Зарегистрирован: 5 лет • Статус: Проверено
Скачан: 738 раз • Желающих скачать: 0 • Поблагодарили: 100 раз
 Раздают: 0  |  0 KB/s  ]   Качают: 0  |  0 KB/s  ] 
 Полного источника не было 1 год 8 месяцев 
Сообщения
 Добавлено: 2011-11-26 10:57
DVD Release Group
Аватара пользователя
Стаж: 7 лет 1 месяц
Сообщений: 3569
Спасибок: 247801
Лайков: 1020
Мальчишник 2: Из Вегаса в Бангкок

The Hangover Part II

«Теперь их имеет Бангкок»


Изображение


Год выпуска: 2011
Страна: США / Legendary Pictures
Жанр: Комедия
Продолжительность:
Перевод: Профессиональный (полное дублирование)
Субтитры: Русские, английские, хорватские, словацкие, чешские, литовские, латвийские, эстонские
Режиссер: Тодд Филлипс
В ролях: Брэдли Купер, Эд Хелмс, Зак Галифианакис, Майк Тайсон, Джастин Барта, Кен Жонг, Пол Джаматти, Джефри Тэмбор, Мэйсон С. Ли, Джеми Чунг
Описание: В продолжении культовой комедии «Мальчишник в Вегасе» четверо друзей Фил, Стю, Алан и Даг отправляются в экзотический Тайланд на свадьбу Стю. После безумного мальчишника в Лас-Вегасе, они решают не испытывать судьбу во второй раз, а потому в Бангкоке планируют очень спокойное и безопасное празднество. Но как обычно, все идет совсем не по плану… Что происходит в Вегасе, остается в Вегасе. Но то, что происходит в Бангкоке — это просто настоящее безумие…
Кинопоиск: 7.26 (26498)
IMDb: 6.7 (79588)
Дополнительно:
Исходник: DVD9 (5.12 Гб) [лицензия, PAL 16:9]
Убрано: Допы, реклама, заставки, все бонусы и звуки: чешский, украинский, английский (комментарий)
Меню подправлено, удалены кнопки допов и лишних языков.
Сжатие фильма: нет
Качество: DVD5 (сжатый)
Формат: DVD Video
Видео кодек: MPEG2
Аудио кодек: AC3
Видео: 720х576 (16:9) 25.00fps 5232Kbps
Аудио:
Аудио Rus: 48kHz 6ch 384Kbps
Аудио Eng: 48kHz 6ch 384Kbps
"MediaInfo"

Общее
Полное имя : Мальчишник 2 DVD5\VIDEO_TS\VTS_01_1.VOB
Формат : MPEG-PS
Размер файла : 1024 Мбайт
Продолжительность : 23 м.
Режим общего битрейта : Переменный
Общий поток : 6122 Кбит/сек
Библиотека кодирования : encoded by TMPGEnc (ver. 2.524.63.181)

Видео
Идентификатор : 224 (0xE0)
Формат : MPEG Video
Версия формата : Version 2
Профиль формата : Main@Main
Параметр BVOP формата : Да
Параметр матрицы формата : Выборочная
Продолжительность : 23 м.
Вид битрейта : Переменный
Битрейт : 5232 Кбит/сек
Ширина : 720 пикселей
Высота : 576 пикселей
Соотношение сторон : 16:9
Частота кадров : 25,000 кадров/сек
Стандарт вещания : PAL
Цветовое пространство : YUV
Субдискретизация насыщенности : 4:2:0
Битовая глубина : 8 бит
Метод сжатия : С потерями
Бит/(Пиксели*Кадры) : 0.505
Размер потока : 875 Мбайт (85%)
Библиотека кодирования : TMPGEnc 2.524.63.181

Аудио #1
Идентификатор : 189 (0xBD)-128 (0x80)
Формат : AC-3
Формат/Информация : Audio Coding 3
Расширение режима : CM (complete main)
Режим смешивания : DVD-Video
Продолжительность : 23 м.
Вид битрейта : Постоянный
Битрейт : 384 Кбит/сек
Каналы : 6 каналов
Расположение каналов : Front: L C R, Side: L R, LFE
Частота : 48,0 КГц
Битовая глубина : 16 бит
Метод сжатия : С потерями
Задержка видео : -227 мс.
Размер потока : 64,2 Мбайт (6%)

Аудио #2
Идентификатор : 189 (0xBD)-130 (0x82)
Формат : AC-3
Формат/Информация : Audio Coding 3
Расширение режима : CM (complete main)
Режим смешивания : DVD-Video
Продолжительность : 23 м.
Вид битрейта : Постоянный
Битрейт : 384 Кбит/сек
Каналы : 6 каналов
Расположение каналов : Front: L C R, Side: L R, LFE
Частота : 48,0 КГц
Битовая глубина : 16 бит
Метод сжатия : С потерями
Задержка видео : -227 мс.
Размер потока : 64,2 Мбайт (6%)

Меню
Свернуть
"Скриншоты"

Изображение
Изображение
Изображение
Изображение
Изображение
Изображение
Изображение
Изображение
Свернуть
Раздача группы:
Изображение


Последний раз редактировалось rastor 2011-12-07 15:57, всего редактировалось 2 раз(а).
Не в сети
Профиль  
 Добавлено: 2011-11-26 17:42 (спустя 6 часов)
Аватара пользователя
Стаж: 6 лет 7 месяцев
Возраст: 32
Сообщений: 12
Спасибок: 27
Чего со скоростью????? :ne_znayu:
Не в сети
Профиль  
 Добавлено: 2011-12-07 19:38 (спустя 11 дней)
Аватара пользователя
Стаж: 6 лет 2 месяца
Возраст: 35
Сообщений: 27
Раздача - STOP! :(
_________________
Кемпер со стажем...
Не в сети
Профиль  
 Добавлено: 2011-12-07 19:52 (спустя 14 минут)
DVD Release Group
Аватара пользователя
Стаж: 7 лет 1 месяц
Сообщений: 3569
Спасибок: 247801
Лайков: 1020

megafat:

Раздача - STOP! :(
Проблема? :(
Не в сети
Профиль  
 Добавлено: 2011-12-08 19:41 (спустя 23 часа)
Аватара пользователя
Стаж: 6 лет 2 месяца
Возраст: 35
Сообщений: 27
Всё нормуль, кнопочку нажал! :bra_vo:
_________________
Кемпер со стажем...
Не в сети
Профиль  
 Добавлено: 2011-12-28 21:37 (спустя 20 дней)
Стаж: 5 лет 9 месяцев
Сообщений: 94
Спасибо за раздачу.
Не в сети
Профиль  
 Добавлено: 2012-03-12 21:12 (спустя 2 месяца 14 дней)
Стаж: 4 года 8 месяцев
Сообщений: 1
posting.php?mode=reply&f=1746&t=439005#
Не в сети
Профиль  
 Добавлено: 2012-03-31 21:00 (спустя 18 дней)
Стаж: 7 лет 10 месяцев
Сообщений: 18
как переключить на русский..................((((((((((((((((((
Не в сети
Профиль  
Начать новую темуОтветить на тему  [ Сообщений: 8 ] 
Вы не можете начинать темы
Вы не можете отвечать на сообщения
Вы не можете редактировать свои сообщения
Вы не можете удалять свои сообщения